<?xml version="1.0" standalone="no"?>
<!DOCTYPE svg PUBLIC "-//W3C//DTD SVG 1.1//EN" "http://www.w3.org/Graphics/SVG/1.1/DTD/svg11.dtd">
<svg xmlns="http://www.w3.org/2000/svg">
<defs >
<font id="Roboto" horiz-adv-x="1193" ><font-face
    font-family="Roboto Black"
    units-per-em="2048"
    panose-1="2 0 0 0 0 0 0 0 0 0"
    ascent="1900"
    descent="-500"
    alphabetic="0" />
<glyph unicode=" " horiz-adv-x="510" />
<glyph unicode="!" horiz-adv-x="566" d="M473 1456L430 461H156L113 1456H473ZM104 151Q104 223 156 271T291 320Q374 320 425 272T477 151Q477 79 426 31T291 -18Q208 -18 156 30T104 151Z" />
<glyph unicode="&quot;" horiz-adv-x="650" d="M256 1537V1398L213 969H26V1384V1537H256ZM607 1537V1398L564 969H378V1393V1537H607Z" />
<glyph unicode="#" horiz-adv-x="1190" d="M185 0L425 1456H623L384 0H185ZM545 0L785 1456H984L744 0H545ZM1146 857H105V1040H1146V857ZM1070 410H30V593H1070V410Z" />
<glyph unicode="$" horiz-adv-x="1187" d="M714 1685V1394H555V1685H714ZM694 52V-218H535V52H694ZM761 386Q761 441 744 477T689 540T588 594Q455 648 354 705T195 847T137 1068Q137 1192 198 1284T368 1426T619 1477Q727 1477 816 1445T970 1353T1070 1205T1105
1006H768Q768 1063 757 1104T724 1171T675 1209T614 1222Q564 1222 533 1201T488 1144T474 1066Q474 1021 489 988T543 926T647 867Q777 812 879 753T1039 609T1098 388Q1098 258 1037 167T867 27T615 -21Q519 -21 425 4T253 85T129 236T83 467H420Q420 400 436
355T479 284T542 246T615 234Q666 234 698 254T745 309T761 386Z" />
<glyph unicode="%" horiz-adv-x="1521" d="M91 1099V1176Q91 1259 127 1327T235 1436T414 1477Q524 1477 596 1436T703 1327T739 1176V1099Q739 1018 704 950T597 841T416 800Q308 800 236 841T128 950T91 1099ZM307 1176V1099Q307 1069 319 1042T355 999T416
982Q453 982 476 998T510 1042T522 1099V1176Q522 1208 511 1235T475 1278T414 1295Q379 1295 355 1279T319 1235T307 1176ZM782 280V357Q782 439 818 507T927 616T1107 657Q1217 657 1288 616T1395 507T1431 357V280Q1431 198 1396 130T1289 21T1109 -20Q1001
-20 928 21T819 130T782 280ZM999 357V280Q999 249 1014 222T1054 179T1109 162Q1155 162 1177 178T1207 222T1215 280V357Q1215 388 1203 415T1167 458T1107 475Q1071 475 1047 459T1011 415T999 357ZM1191 1247L480 109L323 188L1034 1326L1191 1247Z" />
<glyph unicode="&amp;" horiz-adv-x="1381" d="M308 765L617 958Q679 998 693 1033T708 1103Q708 1144 679 1180T596 1217Q557 1217 531 1200T491 1153T477 1088Q477 1043 502 997T568 900T661 788L1346 0H970L412 634Q343 722 293 796T214 940T186 1084Q186 1199
236 1287T379 1426T597 1477Q713 1477 798 1429T931 1302T978 1127Q978 1061 953 1002T885 894T785 805L451 572Q431 547 419 522T401 470T395 414Q395 362 417 323T475 261T555 239Q636 239 711 274T847 375T942 530T977 728H1259Q1259 610 1236 504T1159 307T1015
149Q1010 146 997 138T977 126Q872 51 770 15T532 -21Q385 -21 279 32T114 178T56 391Q56 476 88 539T177 657T308 765Z" />
<glyph unicode="&apos;" horiz-adv-x="316" d="M284 1536V1374L250 961H44V1361V1536H284Z" />
<glyph unicode="(" horiz-adv-x="723" d="M121 564V592Q121 799 163 969T278 1269T438 1483T620 1606L683 1440Q627 1399 575 1329T480 1155T414 913T389 594V562Q389 382 413 243T480 1T574 -172T683 -284L620 -450Q527 -412 439 -327T278 -113T164 186T121 564Z" />
<glyph unicode=")" horiz-adv-x="722" d="M626 592V564Q626 367 582 198T462 -103T295 -323T105 -450L40 -284Q96 -243 148 -173T243 1T309 243T334 562V594Q334 774 310 913T243 1155T149 1328T40 1440L105 1606Q202 1569 294 1480T462 1259T581 958T626 592Z" />
<glyph unicode="*" horiz-adv-x="953" d="M125 684L352 956L27 1046L92 1235L410 1104L386 1456H599L573 1097L884 1225L948 1034L618 944L837 679L665 561L481 855L297 571L125 684Z" />
<glyph unicode="+" horiz-adv-x="1094" d="M1043 826V537H45V826H1043ZM703 1206V146H388V1206H703Z" />
<glyph unicode="," horiz-adv-x="552" d="M421 254L419 40Q419 -81 360 -199T214 -392L43 -312Q64 -266 89 -220T132 -115T150 21V254H421Z" />
<glyph unicode="-" horiz-adv-x="921" d="M753 758V497H152V758H753Z" />
<glyph unicode="." horiz-adv-x="620" d="M117 158Q117 230 169 278T303 327Q386 327 437 279T489 158Q489 86 438 38T303 -11Q221 -11 169 37T117 158Z" />
<glyph unicode="/" horiz-adv-x="719" d="M709 1456L211 -125H-29L469 1456H709Z" />
<glyph unicode="0" horiz-adv-x="1187" d="M1101 861V595Q1101 438 1065 322T961 130T800 17T595 -20Q505 -20 427 3T287 75T179 197T110 369T86 595V861Q86 1019 122 1134T227 1326T388 1439T593 1476Q683 1476 760 1453T901 1381T1008 1259T1077 1087T1101 861ZM764
554V904Q764 974 757 1026T735 1114T699 1172T652 1205T593 1216Q553 1216 522 1200T468 1147T435 1051T423 904V554Q423 483 430 431T452 342T488 283T536 250T595 240Q634 240 665 256T718 308T752 405T764 554Z" />
<glyph unicode="1" horiz-adv-x="1187" d="M836 1456V0H499V1076L167 979V1235L805 1456H836Z" />
<glyph unicode="2" horiz-adv-x="1187" d="M1106 260V0H90V220L558 712Q620 783 658 839T713 942T731 1025Q731 1088 713 1130T659 1195T571 1217Q519 1217 480 1187T420 1105T398 988H60Q60 1122 125 1233T308 1410T579 1477Q740 1477 849 1427T1013 1283T1069
1055Q1069 979 1045 909T976 771T867 630T720 477L532 260H1106Z" />
<glyph unicode="3" horiz-adv-x="1187" d="M397 869H561Q624 869 664 891T725 955T745 1054Q745 1098 727 1135T670 1194T573 1217Q533 1217 495 1201T433 1154T408 1081H70Q70 1205 138 1293T319 1429T562 1477Q717 1477 834 1430T1016 1290T1082 1061Q1082 986
1047 920T949 804T802 726T617 697H397V869ZM397 618V786H617Q726 786 816 762T971 689T1071 571T1106 409Q1106 307 1065 227T950 92T777 9T562 -20Q471 -20 380 4T214 80T94 212T48 405H386Q386 359 411 322T480 262T573 240Q635 240 678 263T745 327T768 416Q768
490 744 534T673 598T561 618H397Z" />
<glyph unicode="4" horiz-adv-x="1187" d="M1127 569V309H79L59 515L644 1456H910L621 983L381 569H1127ZM980 1456V0H643V1456H980Z" />
<glyph unicode="5" horiz-adv-x="1187" d="M378 649L110 712L198 1456H1049V1194H473L440 905Q464 919 521 938T649 958Q757 958 840 926T982 831T1069 677T1099 469Q1099 375 1069 288T976 131T818 21T593 -20Q496 -20 404 10T239 96T123 233T81 414H420Q423
361 445 322T504 262T591 240Q641 240 674 260T726 315T753 395T761 492Q761 546 750 589T713 662T649 709T554 725Q481 725 439 700T378 649Z" />
<glyph unicode="6" horiz-adv-x="1187" d="M849 1477H903V1212H885Q788 1212 704 1185T556 1104T457 966T421 771V516Q421 446 433 394T469 308T528 257T611 240Q650 240 683 258T740 309T778 386T791 482Q791 538 777 583T738 659T677 707T599 724Q535 724 491
696T424 623T401 534L320 616Q318 676 343 740T418 859T543 948T717 982Q817 982 893 944T1022 838T1102 679T1129 482Q1129 375 1092 284T986 124T825 18T620 -20Q505 -20 408 19T238 134T125 319T84 566V689Q84 876 145 1022T313 1269T558 1424T849 1477Z" />
<glyph unicode="7" horiz-adv-x="1187" d="M1102 1456V1276L558 0H202L747 1196H52V1456H1102Z" />
<glyph unicode="8" horiz-adv-x="1187" d="M1101 401Q1101 262 1036 168T856 27T595 -20Q450 -20 335 27T152 168T85 401Q85 496 123 571T231 700T392 781T593 809Q739 809 854 760T1035 619T1101 401ZM762 428Q762 488 741 529T682 593T593 615Q543 615 505 593T445
530T423 428Q423 370 445 328T505 263T595 240Q646 240 683 262T741 327T762 428ZM1071 1067Q1071 953 1011 868T843 735T595 687Q456 687 348 734T178 867T116 1067Q116 1201 177 1292T347 1430T593 1477Q733 1477 841 1430T1010 1292T1071 1067ZM734 1049Q734
1101 718 1138T671 1196T593 1217Q548 1217 517 1197T470 1140T454 1049Q454 997 470 958T517 897T595 875Q642 875 672 897T718 958T734 1049Z" />
<glyph unicode="9" horiz-adv-x="1187" d="M303 250H323Q423 250 503 272T640 340T727 461T758 642V943Q758 1013 746 1064T711 1150T656 1200T584 1217Q544 1217 514 1195T462 1135T429 1051T418 957Q418 904 429 859T463 780T520 727T601 708Q647 708 680 724T736
768T768 828T778 891L876 814Q876 750 847 688T767 576T650 495T509 465Q410 465 331 500T195 600T110 755T80 957Q80 1064 117 1158T222 1323T383 1436T587 1477Q692 1477 784 1438T946 1322T1056 1135T1096 881V765Q1096 610 1058 485T950 266T785 108T574 12T329
-20H303V250Z" />
<glyph unicode=":" horiz-adv-x="615" d="M118 158Q118 230 170 278T304 327Q387 327 438 279T490 158Q490 86 439 38T304 -11Q222 -11 170 37T118 158ZM118 956Q118 1028 170 1076T304 1125Q387 1125 438 1077T490 956Q490 884 439 836T304 787Q222 787 170 835T118
956Z" />
<glyph unicode=";" horiz-adv-x="590" d="M107 956Q107 1028 159 1076T293 1125Q376 1125 427 1077T479 956Q479 884 428 836T293 787Q211 787 159 835T107 956ZM446 254L444 40Q444 -81 385 -199T239 -392L68 -312Q89 -266 114 -220T157 -115T175 21V254H446Z" />
<glyph unicode="&lt;" horiz-adv-x="1045" d="M321 631L931 425V118L46 478V706L321 631ZM931 798L320 588L46 516V744L931 1104V798Z" />
<glyph unicode="=" horiz-adv-x="1200" d="M1055 982V722H128V982H1055ZM1055 543V283H128V543H1055Z" />
<glyph unicode="&gt;" horiz-adv-x="1051" d="M719 591L111 797V1103L991 743V514L719 591ZM111 423L719 634L991 705V477L111 117V423Z" />
<glyph unicode="?" horiz-adv-x="1044" d="M631 461H344Q344 549 356 616T400 738T484 838Q531 877 565 913T617 986T635 1065Q635 1117 621 1150T578 1199T506 1216Q471 1216 441 1199T391 1147T370 1053H31Q34 1202 97 1295T267 1432T506 1476Q652 1476 757
1431T918 1298T974 1080Q974 994 942 931T855 813T733 696Q675 645 654 593T631 461ZM303 157Q303 229 355 277T490 326Q573 326 625 278T677 157Q677 85 625 37T490 -12Q407 -12 355 36T303 157Z" />
<glyph unicode="@" horiz-adv-x="1834" d="M1755 550Q1751 444 1724 342T1643 158T1505 28T1304 -21Q1241 -21 1189 1T1099 64T1042 163T1026 293L1077 880H1302L1252 293Q1247 251 1253 224T1274 182T1308 161T1348 154Q1391 154 1427 183T1491 264T1535 387T1553
540Q1559 665 1540 772T1476 966T1358 1112T1187 1205T960 1238Q839 1238 737 1200T555 1092T417 924T326 709T287 458Q280 314 302 199T375 -3T500 -147T674 -234T895 -263Q982 -263 1072 -244T1226 -198L1264 -364Q1194 -409 1089 -431T891 -453Q729 -453 596
-416T362 -305T193 -122T93 133T68 458Q75 622 119 766T240 1029T426 1232T669 1364T964 1410Q1122 1410 1250 1370T1476 1255T1637 1073T1731 835T1755 550ZM754 436Q749 372 754 323T775 240T816 190T877 173Q894 173 916 181T961 212T1006 276T1044 385L1137
271Q1114 199 1081 145T1006 55T912 1T799 -17Q726 -17 668 15T569 106T512 249T504 436Q516 537 545 623T619 776T720 892T844 965T987 990Q1106 990 1173 957T1302 880L1192 724Q1163 750 1117 774T1006 799Q946 799 903 776T830 706T782 592T754 436Z" />
<glyph unicode="A" horiz-adv-x="1395" d="M728 1150L373 0H-4L531 1456H770L728 1150ZM1022 0L666 1150L620 1456H862L1400 0H1022ZM1008 543V272H261V543H1008Z" />
<glyph unicode="B" horiz-adv-x="1322" d="M705 619H330L328 849H632Q714 849 763 867T834 922T857 1012Q857 1074 834 1112T762 1167T634 1185H462V0H111V1456H634Q769 1456 875 1432T1055 1357T1169 1232T1208 1054Q1208 965 1170 887T1044 761T802 710L705
619ZM691 0H245L365 270H691Q763 270 806 292T869 352T889 436Q889 492 871 533T812 596T705 619H410L412 849H765L847 757Q993 763 1078 716T1201 592T1238 431Q1238 288 1177 192T993 48T691 0Z" />
<glyph unicode="C" horiz-adv-x="1344" d="M939 493H1289Q1282 341 1207 225T1000 45T687 -20Q541 -20 427 29T233 170T112 393T70 688V767Q70 931 113 1062T237 1286T431 1428T682 1477Q872 1477 1003 1409T1206 1223T1291 953H941Q939 1035 913 1090T831 1174T682
1202Q617 1202 569 1178T489 1102T442 968T426 769V688Q426 572 440 490T485 356T565 280T687 255Q767 255 822 280T907 358T939 493Z" />
<glyph unicode="D" horiz-adv-x="1325" d="M584 0H261L263 270H584Q684 270 753 318T859 461T896 697V760Q896 865 876 944T815 1077T716 1158T579 1185H255V1456H579Q727 1456 850 1406T1064 1262T1204 1041T1254 758V697Q1254 543 1205 415T1065 194T853 51T584
0ZM462 1456V0H111V1456H462Z" />
<glyph unicode="E" horiz-adv-x="1146" d="M1113 270V0H337V270H1113ZM462 1456V0H111V1456H462ZM1013 878V617H337V878H1013ZM1116 1456V1185H337V1456H1116Z" />
<glyph unicode="F" horiz-adv-x="1120" d="M462 1456V0H111V1456H462ZM1028 850V580H362V850H1028ZM1085 1456V1185H362V1456H1085Z" />
<glyph unicode="G" horiz-adv-x="1396" d="M1302 778V180Q1265 139 1189 93T996 13T723 -20Q578 -20 460 26T258 163T128 385T82 687V768Q82 938 128 1070T257 1292T454 1430T704 1477Q905 1477 1031 1414T1222 1239T1301 981H964Q954 1053 927 1103T848 1180T716
1207Q653 1207 602 1180T514 1099T459 962T439 770V687Q439 578 457 496T513 360T609 278T748 250Q804 250 844 259T910 283T951 311V537H707V778H1302Z" />
<glyph unicode="H" horiz-adv-x="1439" d="M1092 878V608H345V878H1092ZM462 1456V0H111V1456H462ZM1328 1456V0H978V1456H1328Z" />
<glyph unicode="I" horiz-adv-x="619" d="M484 1456V0H134V1456H484Z" />
<glyph unicode="J" horiz-adv-x="1151" d="M690 457V1456H1040V457Q1040 311 974 204T794 39T539 -20Q393 -20 280 29T102 180T37 440H389Q389 366 406 325T456 267T539 250Q587 250 620 274T672 345T690 457Z" />
<glyph unicode="K" horiz-adv-x="1310" d="M462 1456V0H111V1456H462ZM1331 1456L767 718L437 357L373 679L584 999L898 1456H1331ZM916 0L540 656L813 857L1331 0H916Z" />
<glyph unicode="L" horiz-adv-x="1110" d="M1073 270V0H337V270H1073ZM462 1456V0H111V1456H462Z" />
<glyph unicode="M" horiz-adv-x="1795" d="M285 1456H571L896 443L1221 1456H1507L1012 0H780L285 1456ZM111 1456H407L462 340V0H111V1456ZM1385 1456H1682V0H1330V340L1385 1456Z" />
<glyph unicode="N" horiz-adv-x="1438" d="M1327 1456V0H977L462 906V0H111V1456H462L977 550V1456H1327Z" />
<glyph unicode="O" horiz-adv-x="1414" d="M1343 757V698Q1343 531 1297 399T1165 173T964 30T708 -20Q567 -20 451 29T249 172T117 398T70 698V757Q70 924 116 1057T247 1283T448 1426T706 1476Q846 1476 962 1427T1164 1284T1296 1057T1343 757ZM987 698V759Q987
867 969 949T914 1088T826 1172T706 1201Q636 1201 584 1173T497 1088T445 950T427 759V698Q427 591 444 509T497 369T585 283T708 254Q775 254 827 283T914 369T968 508T987 698Z" />
<glyph unicode="P" horiz-adv-x="1334" d="M692 494H330V765H692Q766 765 812 790T879 859T901 960Q901 1020 880 1071T812 1153T692 1185H462V0H111V1456H692Q867 1456 993 1392T1188 1217T1256 962Q1256 821 1188 716T994 553T692 494Z" />
<glyph unicode="Q" horiz-adv-x="1414" d="M923 240L1329 -82L1111 -266L712 56L923 240ZM1346 757V698Q1346 531 1300 399T1168 173T966 30T710 -20Q569 -20 453 29T251 172T119 398T72 698V757Q72 924 118 1057T249 1283T450 1426T708 1476Q848 1476 964 1427T1166
1284T1299 1057T1346 757ZM989 698V759Q989 867 971 949T916 1088T828 1172T708 1201Q638 1201 586 1173T499 1088T447 950T429 759V698Q429 591 446 509T499 369T587 283T710 254Q777 254 829 283T916 369T970 508T989 698Z" />
<glyph unicode="R" horiz-adv-x="1336" d="M111 1456H684Q852 1456 976 1406T1167 1258T1235 1016Q1235 891 1196 807T1088 669T926 579L811 514H330L328 785H684Q751 785 795 809T861 877T884 984Q884 1047 861 1092T794 1161T684 1185H462V0H111V1456ZM908 0L586
644L958 646L1284 15V0H908Z" />
<glyph unicode="S" horiz-adv-x="1282" d="M861 387Q861 421 851 448T814 500T737 548T604 600Q508 632 419 672T260 767T149 895T108 1067Q108 1161 150 1236T267 1365T445 1447T668 1476Q828 1476 950 1421T1142 1264T1212 1024H863Q863 1079 841 1121T773 1187T660
1211Q594 1211 549 1191T481 1138T458 1064Q458 1031 476 1005T529 955T613 911T725 870Q841 833 931 788T1084 685T1179 554T1212 389Q1212 291 1174 215T1065 87T895 7T674 -20Q562 -20 454 8T257 96T117 249T64 472H416Q416 408 433 364T483 294T564 256T674
244Q741 244 782 263T842 315T861 387Z" />
<glyph unicode="T" horiz-adv-x="1292" d="M816 1456V0H465V1456H816ZM1254 1456V1185H37V1456H1254Z" />
<glyph unicode="U" horiz-adv-x="1361" d="M901 1456H1252V505Q1252 335 1181 218T982 40T681 -20Q510 -20 381 40T179 217T106 505V1456H458V505Q458 415 484 359T560 276T681 250Q753 250 802 276T876 358T901 505V1456Z" />
<glyph unicode="V" horiz-adv-x="1354" d="M662 343L965 1456H1358L867 0H613L662 343ZM387 1456L690 343L741 0H484L-4 1456H387Z" />
<glyph unicode="W" horiz-adv-x="1780" d="M447 132L737 1456H910L1004 1343L695 0H504L447 132ZM370 1456L615 122L552 0H331L22 1456H370ZM1163 129L1406 1456H1753L1444 0H1224L1163 129ZM1035 1456L1332 124L1272 0H1081L765 1345L863 1456H1035Z" />
<glyph unicode="X" horiz-adv-x="1308" d="M416 1456L654 972L892 1456H1292L886 734L1303 0H899L654 493L409 0H4L422 734L15 1456H416Z" />
<glyph unicode="Y" horiz-adv-x="1286" d="M375 1456L643 824L912 1456H1290L822 523V0H465V523L-4 1456H375Z" />
<glyph unicode="Z" horiz-adv-x="1250" d="M1201 270V0H147V270H1201ZM1194 1276L321 0H67V185L950 1456H1194V1276ZM1081 1456V1185H62V1456H1081Z" />
<glyph unicode="[" horiz-adv-x="578" d="M565 1706V1460H447V-104H565V-349H108V1706H565Z" />
<glyph unicode="\" horiz-adv-x="874" d="M586 -125L-21 1456H332L940 -125H586Z" />
<glyph unicode="]" horiz-adv-x="578" d="M14 1460V1706H471V-349H14V-104H134V1460H14Z" />
<glyph unicode="^" horiz-adv-x="917" d="M467 1201L290 729H36L335 1456H523L467 1201ZM630 729L453 1201L397 1456H585L884 729H630Z" />
<glyph unicode="_" horiz-adv-x="905" d="M903 0V-251H-1V0H903Z" />
<glyph unicode="`" horiz-adv-x="696" d="M411 1536L610 1222H337L55 1536H411Z" />
<glyph unicode="a" horiz-adv-x="1088" d="M657 272V718Q657 764 644 797T603 848T528 867Q490 867 463 854T422 815T408 749H71Q71 824 104 888T200 1001T350 1075T546 1102Q675 1102 776 1059T937 931T996 716V273Q996 167 1008 113T1042 17V0H704Q680 50 669
122T657 272ZM698 661L700 481H551Q504 481 472 468T420 433T392 382T383 323Q383 293 397 270T437 233T493 220Q549 220 588 241T649 294T670 352L744 214Q724 174 699 133T636 58T544 2T413 -20Q313 -20 230 21T96 135T46 305Q46 389 76 455T169 567T327 637T553
661H698Z" />
<glyph unicode="b" horiz-adv-x="1153" d="M98 1536H435V266L400 0H98V1536ZM1099 553V532Q1099 409 1074 308T997 134T866 20T679 -20Q581 -20 511 22T394 140T318 315T272 529V554Q289 667 318 766T394 941T510 1059T677 1102Q786 1102 865 1061T997 946T1074
772T1099 553ZM762 532V553Q762 612 755 664T730 756T679 819T593 842Q539 842 503 824T445 773T414 691T406 581V502Q404 419 421 360T480 270T595 239Q649 239 682 260T733 320T756 413T762 532Z" />
<glyph unicode="c" horiz-adv-x="1065" d="M552 240Q599 240 632 257T683 307T700 386H1017Q1018 264 958 173T794 31T560 -20Q433 -20 338 21T180 137T85 312T53 529V552Q53 669 84 769T179 944T337 1060T558 1102Q693 1102 796 1051T959 903T1017 668H700Q701
717 685 756T636 818T550 842Q498 842 466 819T418 756T396 663T390 552V529Q390 469 395 417T418 325T467 263T552 240Z" />
<glyph unicode="d" horiz-adv-x="1152" d="M717 248V1536H1056V0H752L717 248ZM53 528V549Q53 672 80 773T160 948T292 1062T474 1102Q566 1102 635 1060T753 941T833 764T880 545V520Q864 410 833 313T753 140T635 23T472 -20Q369 -20 291 21T160 136T80 310T53
528ZM390 549V528Q390 467 398 415T425 324T477 262T558 240Q623 240 665 271T728 359T746 493V572Q748 638 737 688T703 773T644 824T560 842Q513 842 481 820T428 759T399 666T390 549Z" />
<glyph unicode="e" horiz-adv-x="1116" d="M619 -20Q487 -20 383 21T208 136T99 304T61 505V543Q61 662 94 763T192 941T355 1059T583 1102Q698 1102 789 1065T943 959T1040 792T1074 572V435H190V646H745V672Q746 726 727 764T670 822T580 842Q525 842 490 818T435
753T407 657T399 543V505Q399 445 415 396T463 313T539 259T641 240Q710 240 777 266T892 352L1045 170Q1012 123 952 79T807 8T619 -20Z" />
<glyph unicode="f" horiz-adv-x="743" d="M508 0H169V1170Q169 1296 220 1382T364 1512T584 1557Q628 1557 667 1551T743 1536L744 1288Q726 1293 707 1295T660 1297Q611 1297 577 1283T526 1240T508 1170V0ZM718 1082V848H13V1082H718Z" />
<glyph unicode="g" horiz-adv-x="1179" d="M775 1082H1081V42Q1081 -108 1012 -212T820 -371T531 -426Q458 -426 382 -408T240 -353T129 -264L270 -66Q311 -112 373 -144T519 -177Q592 -177 641 -151T717 -76T743 44V826L775 1082ZM56 528V549Q56 672 86 773T174
948T314 1062T499 1102Q610 1102 681 1060T796 941T864 764T906 545V520Q889 410 860 313T783 140T666 23T497 -20Q395 -20 314 21T175 136T87 310T56 528ZM393 549V528Q393 467 404 415T440 324T499 262T583 240Q656 240 701 271T766 359T783 493V572Q785 638
774 688T740 773T678 824T585 842Q538 842 502 820T442 759T406 666T393 549Z" />
<glyph unicode="h" horiz-adv-x="1156" d="M425 1536V0H88V1536H425ZM385 578L306 576Q306 690 334 786T414 953T539 1063T701 1102Q781 1102 847 1079T962 1005T1037 872T1064 672V0H725V674Q725 740 707 776T654 827T571 842Q512 842 475 822T419 767T392 683T385 578Z" />
<glyph unicode="i" horiz-adv-x="563" d="M451 1082V0H113V1082H451ZM93 1361Q93 1433 145 1479T280 1525Q363 1525 415 1479T467 1361Q467 1289 415 1243T280 1197Q197 1197 145 1243T93 1361Z" />
<glyph unicode="j" horiz-adv-x="554" d="M120 1082H458V-35Q458 -165 408 -254T265 -390T43 -437Q0 -437 -36 -434T-117 -420V-165Q-91 -169 -69 -171T-21 -174Q25 -174 56 -159T103 -113T120 -35V1082ZM95 1361Q95 1433 147 1479T282 1525Q365 1525 417 1479T469
1361Q469 1289 417 1243T282 1197Q199 1197 147 1243T95 1361Z" />
<glyph unicode="k" horiz-adv-x="1120" d="M435 1537V0H98V1537H435ZM1127 1082L657 531L411 285L264 499L469 766L723 1082H1127ZM766 0L477 493L726 670L1152 0H766Z" />
<glyph unicode="l" horiz-adv-x="563" d="M451 1536V0H113V1536H451Z" />
<glyph unicode="m" horiz-adv-x="1764" d="M435 853V0H98V1082H414L435 853ZM394 578L317 576Q317 690 344 786T424 953T554 1063T734 1102Q805 1102 863 1081T963 1014T1027 896T1050 722V0H713V679Q713 748 698 783T653 830T582 842Q538 842 503 822T444 767T407
683T394 578ZM1012 578L918 576Q918 690 943 786T1020 953T1149 1063T1328 1102Q1402 1102 1464 1080T1571 1009T1641 880T1666 681V0H1328V681Q1328 748 1313 782T1268 829T1199 842Q1151 842 1116 822T1058 767T1023 683T1012 578Z" />
<glyph unicode="n" horiz-adv-x="1156" d="M426 851V0H89V1082H405L426 851ZM386 578L307 576Q307 700 337 797T422 963T553 1066T724 1102Q799 1102 861 1080T969 1009T1039 880T1064 681V0H725V682Q725 747 707 781T655 829T572 842Q520 842 484 822T427 767T396
683T386 578Z" />
<glyph unicode="o" horiz-adv-x="1151" d="M53 530V551Q53 670 87 770T187 945T350 1060T574 1102Q702 1102 799 1061T963 945T1063 771T1097 551V530Q1097 412 1063 312T963 137T800 21T576 -20Q449 -20 351 21T187 136T87 311T53 530ZM390 551V530Q390 469 399
416T429 324T486 262T576 240Q629 240 664 262T721 323T751 416T760 530V551Q760 610 751 662T721 755T664 819T574 842Q521 842 486 819T429 756T399 663T390 551Z" />
<glyph unicode="p" horiz-adv-x="1153" d="M435 874V-416H98V1082H412L435 874ZM1099 554V533Q1099 415 1072 314T992 138T861 22T679 -20Q582 -20 512 23T395 142T319 316T273 523V550Q290 667 319 767T395 943T511 1060T678 1102Q781 1102 859 1063T991 952T1072
778T1099 554ZM762 533V554Q762 617 753 669T725 761T673 821T594 842Q540 842 504 826T446 776T416 693T408 577V495Q406 419 423 362T482 272T596 240Q644 240 676 262T727 325T754 419T762 533Z" />
<glyph unicode="q" horiz-adv-x="1151" d="M717 -416V855L764 1082H1056V-416H717ZM53 531V552Q53 675 80 776T160 950T291 1062T473 1102Q570 1102 639 1060T756 943T832 766T879 548V523Q862 413 833 315T756 142T639 23T471 -20Q369 -20 291 21T160 137T80
312T53 531ZM390 552V531Q390 470 398 418T425 325T477 263T557 240Q630 240 672 272T731 361T745 496V575Q746 641 737 691T707 774T649 825T559 842Q512 842 480 821T428 760T399 668T390 552Z" />
<glyph unicode="r" horiz-adv-x="776" d="M435 814V0H98V1082H413L435 814ZM755 1090L749 777Q729 779 695 782T638 785Q579 785 537 772T467 732T427 665T415 572L354 612Q354 721 375 810T437 965T534 1066T662 1102Q687 1102 711 1099T755 1090Z" />
<glyph unicode="s" horiz-adv-x="1050" d="M662 304Q662 332 644 352T579 390T450 426Q371 443 302 471T180 539T99 634T69 760Q69 829 98 890T185 999T326 1074T515 1102Q661 1102 767 1058T930 934T988 750H651Q651 791 638 820T594 864T514 880Q479 880 451
867T405 831T388 777Q388 755 398 738T431 706T487 680T569 659Q678 639 773 602T927 497T987 314Q987 242 954 182T859 76T710 5T514 -20Q359 -20 252 35T91 175T36 347H350Q352 297 374 265T435 218T523 203Q569 203 599 216T646 251T662 304Z" />
<glyph unicode="t" horiz-adv-x="704" d="M665 1082V848H13V1082H665ZM150 1351H487V353Q487 310 497 287T531 254T597 244Q626 244 645 245T681 250V9Q638 -5 591 -12T491 -20Q383 -20 307 14T190 121T150 311V1351Z" />
<glyph unicode="u" horiz-adv-x="1156" d="M727 263V1082H1065V0H749L727 263ZM759 483L847 485Q847 376 821 284T745 123T621 18T451 -20Q371 -20 305 2T190 73T116 198T89 382V1082H426V380Q426 344 435 318T461 275T503 249T562 240Q638 240 681 272T741 359T759 483Z" />
<glyph unicode="v" horiz-adv-x="1058" d="M485 231L698 1082H1053L699 0H489L485 231ZM359 1082L569 231L567 0H356L3 1082H359Z" />
<glyph unicode="w" horiz-adv-x="1487" d="M424 322L624 1082H835L760 701L562 0H393L424 322ZM345 1082L469 328L483 0H278L22 1082H345ZM1013 344L1138 1082H1461L1207 0H1002L1013 344ZM859 1082L1061 324L1092 0H921L727 699L655 1082H859Z" />
<glyph unicode="x" horiz-adv-x="1055" d="M381 1082L533 784L690 1082H1040L756 555L1055 0H702L533 320L365 0H12L311 555L28 1082H381Z" />
<glyph unicode="y" horiz-adv-x="1061" d="M427 127L707 1082H1069L634 -161Q620 -202 597 -249T534 -340T432 -410T277 -437Q228 -437 206 -433T137 -417V-176Q150 -176 159 -176T181 -176Q235 -176 267 -165T317 -133T345 -82L427 127ZM356 1082L569 325L606
-32H380L-5 1082H356Z" />
<glyph unicode="z" horiz-adv-x="1055" d="M985 260V0H147V260H985ZM975 900L298 0H67V188L743 1082H975V900ZM864 1082V822H87V1082H864Z" />
<glyph unicode="{" horiz-adv-x="666" d="M562 1597L626 1421Q549 1390 522 1312T495 1132V929Q495 828 449 746T302 615T41 566V732Q127 732 164 785T202 929V1132Q202 1237 234 1328T346 1489T562 1597ZM626 -183L562 -360Q425 -321 346 -252T235 -91T202 106V309Q202
369 186 413T134 481T41 505V672Q202 672 302 624T448 493T495 309V106Q495 38 506 -20T546 -120T626 -183Z" />
<glyph unicode="|" horiz-adv-x="524" d="M356 1456V-270H173V1456H356Z" />
<glyph unicode="}" horiz-adv-x="666" d="M41 1421L105 1597Q243 1559 321 1490T432 1329T465 1132V929Q465 869 481 825T534 757T627 732V567Q466 567 366 615T219 745T172 929V1132Q172 1200 161 1258T122 1358T41 1421ZM105 -360L41 -183Q93 -162 121 -120T161
-20T172 106V309Q172 411 218 493T365 623T627 671V505Q541 505 503 452T465 309V106Q465 1 433 -90T322 -251T105 -360Z" />
<glyph unicode="~" horiz-adv-x="1295" d="M957 800L1198 799Q1198 698 1174 618T1105 482T999 397T863 367Q785 367 724 398T594 497Q556 536 522 556T449 576Q415 576 389 553T348 492T333 405L94 409Q94 511 118 590T186 724T292 807T427 836Q504 836 569 804T699
707Q737 668 771 648T841 628Q875 628 901 651T942 713T957 800Z" />
<glyph unicode="&#xa0;" horiz-adv-x="510" />
<glyph unicode="&#xa1;" horiz-adv-x="616" d="M128 -372L171 623H445L488 -372H128ZM497 933Q497 861 445 813T310 764Q227 764 175 812T123 933Q123 1005 175 1053T310 1102Q393 1102 445 1054T497 933Z" />
<glyph unicode="&#xa2;" horiz-adv-x="1210" d="M711 1318V1026H511V1318H711ZM711 46V-245H511V46H711ZM598 240Q645 240 678 257T729 307T746 386H1063Q1064 264 1004 173T840 31T606 -20Q479 -20 384 21T226 137T131 312T99 529V552Q99 669 130 769T225 944T383
1060T604 1102Q739 1102 842 1051T1005 903T1063 668H746Q747 717 731 756T682 818T596 842Q544 842 512 819T464 756T442 663T436 552V529Q436 469 441 417T464 325T513 263T598 240Z" />
<glyph unicode="&#xa3;" horiz-adv-x="1230" d="M1176 0H106V270H1175L1176 0ZM918 561H103V822H918V561ZM601 1039L627 449Q627 348 579 283T407 171L210 270Q240 278 252 300T267 356T270 426L252 1039Q252 1177 308 1274T466 1423T706 1475Q860 1475 965 1422T1125
1272T1180 1048H851Q851 1108 833 1142T784 1190T715 1205Q681 1205 655 1187T615 1132T601 1039Z" />
<glyph unicode="&#xa4;" horiz-adv-x="1398" d="M290 608Q290 516 321 437T409 298T540 206T700 173Q785 173 859 206T989 298T1077 436T1109 608Q1109 700 1077 779T989 917T859 1009T700 1042Q615 1042 541 1009T410 917T322 779T290 608ZM104 608Q104 741 150
855T279 1054T469 1186T700 1234Q823 1234 930 1187T1120 1054T1248 855T1294 608Q1294 475 1248 361T1120 162T931 28T700 -20Q577 -20 469 28T279 161T151 361T104 608ZM1335 1120L1133 914L992 1059L1193 1265L1335 1120ZM412 180L210 -26L69 118L271 323L412
180ZM1193 -27L992 179L1133 323L1335 118L1193 -27ZM271 914L69 1120L210 1264L412 1058L271 914Z" />
<glyph unicode="&#xa5;" horiz-adv-x="1108" d="M998 742V552H73V742H998ZM998 452V263H73V452H998ZM481 729L741 1456H1099L707 540H521L481 729ZM367 1456L633 720L590 540H403L10 1456H367ZM726 752V0H376V752H726Z" />
<glyph unicode="&#xa6;" horiz-adv-x="525" d="M411 -270H119V525H411V-270ZM411 1456V698H119V1456H411Z" />
<glyph unicode="&#xa7;" horiz-adv-x="1302" d="M667 151V301Q730 301 774 321T841 378T864 462Q864 493 851 518T808 564T727 607T597 652Q484 684 394 720T241 806T145 924T111 1090Q111 1178 148 1249T256 1371T425 1449T644 1476Q809 1476 928 1427T1112 1283T1176
1051H839Q839 1098 818 1135T753 1194T644 1216Q575 1216 532 1200T469 1155T449 1092Q449 1061 460 1038T499 996T578 959T709 920Q825 891 915 855T1068 771T1163 656T1196 500Q1196 413 1159 348T1052 239T885 173T667 151ZM607 878V725Q545 725 506 705T449
649T431 568Q431 533 442 508T481 462T560 421T691 376Q808 345 899 309T1052 224T1147 106T1179 -61Q1179 -152 1142 -222T1034 -340T867 -412T649 -437Q545 -437 446 -417T268 -351T142 -225T95 -25H432Q432 -73 450 -103T500 -148T570 -170T649 -176Q713 -176
755 -163T820 -124T842 -62Q842 -34 830 -12T788 29T707 68T579 109Q466 139 376 175T223 259T127 373T94 528Q94 613 130 678T234 787T396 855T607 878Z" />
<glyph unicode="&#xa8;" horiz-adv-x="1013" d="M95 1365Q95 1421 140 1459T246 1498Q308 1498 352 1460T397 1365Q397 1309 353 1271T246 1232Q185 1232 140 1270T95 1365ZM614 1365Q614 1421 659 1459T765 1498Q827 1498 871 1460T916 1365Q916 1309 872 1271T765
1232Q704 1232 659 1270T614 1365Z" />
<glyph unicode="&#xa9;" horiz-adv-x="1609" d="M961 596H1117Q1117 439 1027 361T782 282Q675 282 597 331T476 467T433 669V788Q433 903 475 990T596 1126T782 1175Q937 1175 1027 1097T1118 861H962Q962 957 917 998T782 1040Q718 1040 675 1008T610 920T588
789V669Q588 595 610 538T675 449T782 417Q871 417 916 458T961 596ZM208 729Q208 597 253 484T380 285T567 153T796 105Q918 105 1024 152T1211 285T1337 483T1383 729Q1383 861 1338 974T1211 1172T1024 1304T796 1351Q674 1351 568 1304T380 1173T254 975T208
729ZM86 729Q86 888 141 1024T294 1261T520 1419T796 1476Q943 1476 1071 1420T1297 1262T1450 1024T1506 729Q1506 570 1451 434T1298 196T1072 37T796 -20Q649 -20 521 37T294 196T141 434T86 729Z" />
<glyph unicode="&#xaa;" horiz-adv-x="905" d="M577 861V1201Q577 1242 565 1270T526 1313T461 1328Q397 1328 360 1303T323 1229L150 1243Q150 1311 188 1363T297 1446T461 1476Q548 1476 613 1445T715 1353T752 1200V886Q752 837 758 793T778 705H601Q577 776
577 861ZM620 1150L621 1033H476Q418 1033 381 1018T327 977T309 923Q309 882 337 859T426 835Q467 835 508 853T578 899T607 950L625 833Q610 801 579 768T500 713T383 691Q263 691 199 753T134 919Q134 993 171 1044T284 1123T475 1150H620Z" />
<glyph unicode="&#xab;" horiz-adv-x="1054" d="M799 915L564 511L320 512V525L593 915H799ZM564 520L799 116H593L320 506V519L564 520ZM957 915L722 511L478 512V525L751 915H957ZM722 520L957 116H751L478 506V519L722 520Z" />
<glyph unicode="&#xac;" horiz-adv-x="1125" d="M961 805V634H126V805H961ZM961 728V374H761V728H961Z" />
<glyph unicode="&#xad;" horiz-adv-x="921" d="M753 758V497H152V758H753Z" />
<glyph unicode="&#xae;" horiz-adv-x="1609" d="M820 653H606L604 787H779Q827 787 867 800T932 839T957 903Q957 952 941 980T886 1020T782 1033H652V316H501V1166H782Q881 1166 954 1136T1067 1047T1107 902Q1107 848 1082 807T1008 737T888 688Q885 688 882
681T875 674Q858 664 854 660T845 654T820 653ZM810 653L831 768Q988 768 1046 697T1104 515V459Q1104 422 1107 389T1121 332V316H966Q956 342 955 390T953 460V514Q953 585 921 619T810 653ZM208 729Q208 597 253 484T380 285T567 153T796 105Q918 105 1024 152T1211
285T1337 483T1383 729Q1383 861 1338 974T1211 1172T1024 1304T796 1351Q674 1351 568 1304T380 1173T254 975T208 729ZM86 729Q86 888 141 1024T294 1261T520 1419T796 1476Q943 1476 1071 1420T1297 1262T1450 1024T1506 729Q1506 570 1451 434T1298 196T1072
37T796 -20Q649 -20 521 37T294 196T141 434T86 729Z" />
<glyph unicode="&#xaf;" horiz-adv-x="1066" d="M875 1458V1285H181V1458H875Z" />
<glyph unicode="&#xb0;" horiz-adv-x="814" d="M126 1195Q126 1272 164 1336T266 1438T406 1476Q482 1476 544 1438T644 1336T682 1195Q682 1118 645 1055T545 955T406 918Q330 918 266 955T164 1055T126 1195ZM280 1195Q280 1142 317 1107T406 1071Q457 1071
492 1106T527 1195Q527 1250 492 1286T406 1323Q355 1323 318 1287T280 1195Z" />
<glyph unicode="&#xb1;" horiz-adv-x="1103" d="M1000 974V703H84V974H1000ZM688 1293V355H395V1293H688ZM980 265V1H101V265H980Z" />
<glyph unicode="&#xb2;" horiz-adv-x="768" d="M697 842V667H70V814L355 1067Q389 1097 410 1126T443 1179T454 1216Q454 1251 434 1271T370 1292Q324 1292 301 1261T277 1189H52Q52 1265 89 1328T196 1430T358 1468Q461 1468 532 1439T640 1353T678 1216Q678
1156 654 1109T580 1015T448 910L368 842H697Z" />
<glyph unicode="&#xb3;" horiz-adv-x="768" d="M277 1141H368Q402 1141 423 1151T456 1179T467 1223Q467 1246 447 1269T371 1292Q336 1292 309 1279T282 1241H58Q58 1317 101 1367T215 1443T363 1468Q460 1468 534 1442T649 1366T691 1241Q691 1177 651 1134T546
1070T404 1048H277V1141ZM277 999V1088H404Q486 1088 554 1072T664 1012T706 889Q706 815 661 763T538 684T363 656Q290 656 216 680T92 759T42 908H268Q268 880 298 856T380 832Q436 832 458 857T481 913Q481 945 468 963T429 990T368 999H277Z" />
<glyph unicode="&#xb4;" horiz-adv-x="692" d="M90 1222L288 1536H644L365 1222H90Z" />
<glyph unicode="&#xb5;" horiz-adv-x="1314" d="M814 1082H1152V0H834L814 250V1082ZM851 503L991 505Q991 391 968 295T897 128T781 18T619 -21Q549 -21 491 4T389 81T318 216L297 462H470Q470 395 481 352T513 286T565 253T634 243Q694 243 736 262T803 317T839
399T851 503ZM133 1082H470V-416H133V1082Z" />
<glyph unicode="&#xb6;" horiz-adv-x="1001" d="M886 0H657V520H574Q415 520 306 580T139 747T82 988Q82 1122 139 1228T305 1395T574 1456H886V0Z" />
<glyph unicode="&#xb7;" horiz-adv-x="658" d="M138 685Q138 757 190 805T325 854Q408 854 459 806T511 685Q511 613 460 565T325 516Q242 516 190 564T138 685Z" />
<glyph unicode="&#xb8;" horiz-adv-x="570" d="M117 10H374L363 -51Q419 -61 466 -99T513 -224Q513 -280 489 -325T418 -404T301 -454T139 -472L132 -286Q158 -286 178 -278T209 -253T221 -209Q221 -183 208 -169T164 -147T86 -136L117 10Z" />
<glyph unicode="&#xb9;" horiz-adv-x="768" d="M543 1453V667H319V1200L143 1164V1331L524 1453H543Z" />
<glyph unicode="&#xba;" horiz-adv-x="939" d="M118 1044V1121Q118 1225 160 1305T280 1430T464 1476Q572 1476 649 1431T769 1305T811 1121V1044Q811 941 769 861T650 736T466 690Q359 690 281 735T161 861T118 1044ZM293 1121V1044Q293 985 312 938T369 863T466
836Q523 836 561 863T617 937T636 1044V1121Q636 1180 617 1226T560 1300T464 1328Q407 1328 369 1301T312 1227T293 1121Z" />
<glyph unicode="&#xbb;" horiz-adv-x="1054" d="M78 115L312 519L557 518V505L284 115H78ZM78 914H284L557 524V511L312 510L78 914ZM491 115L725 519L970 518V505L697 115H491ZM491 914H697L970 524V511L725 510L491 914Z" />
<glyph unicode="&#xbc;" horiz-adv-x="1452" d="M512 1450V664H288V1197L112 1161V1328L493 1450H512ZM1173 1255L462 117L305 196L1016 1334L1173 1255ZM1368 335V157H730L715 302L1063 789H1240L1048 503L926 335H1368ZM1288 789V0H1063V789H1288Z" />
<glyph unicode="&#xbd;" horiz-adv-x="1537" d="M1133 1255L422 117L265 196L976 1334L1133 1255ZM488 1458V672H264V1205L88 1169V1336L469 1458H488ZM1470 175V0H843V147L1128 400Q1162 430 1183 459T1216 512T1227 549Q1227 584 1207 604T1143 625Q1097 625
1074 594T1050 522H825Q825 598 862 661T969 763T1131 801Q1234 801 1305 772T1413 686T1451 549Q1451 489 1427 442T1353 348T1221 243L1141 175H1470Z" />
<glyph unicode="&#xbe;" horiz-adv-x="1689" d="M1355 1255L644 117L487 196L1198 1334L1355 1255ZM1566 335V157H928L913 302L1261 789H1438L1246 503L1124 335H1566ZM1486 789V0H1261V789H1486ZM321 1141H412Q446 1141 467 1151T500 1179T511 1223Q511 1246
491 1269T415 1292Q380 1292 353 1279T326 1241H102Q102 1317 145 1367T259 1443T407 1468Q504 1468 578 1442T693 1366T735 1241Q735 1177 695 1134T590 1070T448 1048H321V1141ZM321 999V1088H448Q530 1088 598 1072T708 1012T750 889Q750 815 705 763T582 684T407
656Q334 656 260 680T136 759T86 908H312Q312 880 342 856T424 832Q480 832 502 857T525 913Q525 945 512 963T473 990T412 999H321Z" />
<glyph unicode="&#xbf;" horiz-adv-x="1044" d="M417 630H704Q704 543 693 476T654 357T570 258Q523 216 487 179T431 102T411 11Q411 -36 426 -66T469 -111T532 -125Q573 -125 604 -108T655 -55T676 38H1014Q1012 -111 949 -204T779 -341T540 -385Q395 -385 290
-340T129 -206T73 11Q73 98 108 163T201 286T326 405Q365 439 384 470T409 540T417 630ZM756 934Q756 862 704 814T569 765Q486 765 434 813T382 934Q382 1006 434 1054T569 1103Q652 1103 704 1055T756 934Z" />
<glyph unicode="&#xc0;" horiz-adv-x="1395" d="M728 1150L373 0H-4L531 1456H770L728 1150ZM1022 0L666 1150L620 1456H862L1400 0H1022ZM1008 543V272H261V543H1008ZM660 1846L859 1532H586L304 1846H660Z" />
<glyph unicode="&#xc1;" horiz-adv-x="1395" d="M728 1150L373 0H-4L531 1456H770L728 1150ZM1022 0L666 1150L620 1456H862L1400 0H1022ZM1008 543V272H261V543H1008ZM545 1532L743 1846H1099L820 1532H545Z" />
<glyph unicode="&#xc2;" horiz-adv-x="1395" d="M728 1150L373 0H-4L531 1456H770L728 1150ZM1022 0L666 1150L620 1456H862L1400 0H1022ZM1008 543V272H261V543H1008ZM796 1846L1124 1565V1552H859L699 1688L541 1552H281V1569L603 1846H796Z" />
<glyph unicode="&#xc3;" horiz-adv-x="1395" d="M728 1150L373 0H-4L531 1456H770L728 1150ZM1022 0L666 1150L620 1456H862L1400 0H1022ZM1008 543V272H261V543H1008ZM899 1848L1085 1837Q1085 1764 1056 1702T974 1602T854 1564Q808 1564 773 1576T707 1606T645
1635T575 1648Q544 1648 522 1626T499 1558L311 1568Q311 1639 340 1701T422 1802T542 1841Q581 1841 616 1829T684 1800T750 1771T820 1758Q852 1758 875 1780T899 1848Z" />
<glyph unicode="&#xc4;" horiz-adv-x="1395" d="M728 1150L373 0H-4L531 1456H770L728 1150ZM1022 0L666 1150L620 1456H862L1400 0H1022ZM1008 543V272H261V543H1008ZM286 1675Q286 1731 331 1769T437 1808Q499 1808 543 1770T588 1675Q588 1619 544 1581T437
1542Q376 1542 331 1580T286 1675ZM805 1675Q805 1731 850 1769T956 1808Q1018 1808 1062 1770T1107 1675Q1107 1619 1063 1581T956 1542Q895 1542 850 1580T805 1675Z" />
<glyph unicode="&#xc5;" horiz-adv-x="1395" d="M728 1150L373 0H-4L531 1456H770L728 1150ZM1022 0L666 1150L620 1456H862L1400 0H1022ZM1008 543V272H261V543H1008ZM477 1729Q477 1784 506 1830T585 1904T701 1932Q799 1932 862 1872T926 1729Q926 1674 897
1629T818 1557T701 1530Q604 1530 541 1588T477 1729ZM598 1729Q598 1686 625 1656T701 1625Q750 1625 777 1655T805 1729Q805 1773 778 1804T701 1835Q653 1835 626 1804T598 1729Z" />
<glyph unicode="&#xc6;" horiz-adv-x="1926" d="M1007 1298L406 0H16L751 1456H964L1007 1298ZM1087 599V329H335V599H1087ZM1852 264V0H1120V264H1852ZM1231 1456L1292 0H955L894 1456H1231ZM1710 876V612H1079V876H1710ZM1791 1456V1192H1059V1456H1791Z" />
<glyph unicode="&#xc7;" horiz-adv-x="1344" d="M939 493H1289Q1282 341 1207 225T1000 45T687 -20Q541 -20 427 29T233 170T112 393T70 688V767Q70 931 113 1062T237 1286T431 1428T682 1477Q872 1477 1003 1409T1206 1223T1291 953H941Q939 1035 913 1090T831
1174T682 1202Q617 1202 569 1178T489 1102T442 968T426 769V688Q426 572 440 490T485 356T565 280T687 255Q767 255 822 280T907 358T939 493ZM562 10H819L808 -51Q864 -61 911 -99T958 -224Q958 -280 934 -325T863 -404T746 -454T584 -472L577 -286Q603 -286
623 -278T654 -253T666 -209Q666 -183 653 -169T609 -147T531 -136L562 10Z" />
<glyph unicode="&#xc8;" horiz-adv-x="1146" d="M1113 270V0H337V270H1113ZM462 1456V0H111V1456H462ZM1013 878V617H337V878H1013ZM1116 1456V1185H337V1456H1116ZM605 1846L804 1532H531L249 1846H605Z" />
<glyph unicode="&#xc9;" horiz-adv-x="1146" d="M1113 270V0H337V270H1113ZM462 1456V0H111V1456H462ZM1013 878V617H337V878H1013ZM1116 1456V1185H337V1456H1116ZM490 1532L688 1846H1044L765 1532H490Z" />
<glyph unicode="&#xca;" horiz-adv-x="1146" d="M1113 270V0H337V270H1113ZM462 1456V0H111V1456H462ZM1013 878V617H337V878H1013ZM1116 1456V1185H337V1456H1116ZM741 1846L1069 1565V1552H804L644 1688L486 1552H226V1569L548 1846H741Z" />
<glyph unicode="&#xcb;" horiz-adv-x="1146" d="M1113 270V0H337V270H1113ZM462 1456V0H111V1456H462ZM1013 878V617H337V878H1013ZM1116 1456V1185H337V1456H1116ZM231 1675Q231 1731 276 1769T382 1808Q444 1808 488 1770T533 1675Q533 1619 489 1581T382 1542Q321
1542 276 1580T231 1675ZM750 1675Q750 1731 795 1769T901 1808Q963 1808 1007 1770T1052 1675Q1052 1619 1008 1581T901 1542Q840 1542 795 1580T750 1675Z" />
<glyph unicode="&#xcc;" horiz-adv-x="619" d="M484 1456V0H134V1456H484ZM269 1846L468 1532H195L-87 1846H269Z" />
<glyph unicode="&#xcd;" horiz-adv-x="619" d="M484 1456V0H134V1456H484ZM154 1532L352 1846H708L429 1532H154Z" />
<glyph unicode="&#xce;" horiz-adv-x="619" d="M484 1456V0H134V1456H484ZM405 1846L733 1565V1552H468L308 1688L150 1552H-110V1569L212 1846H405Z" />
<glyph unicode="&#xcf;" horiz-adv-x="619" d="M484 1456V0H134V1456H484ZM-105 1675Q-105 1731 -60 1769T46 1808Q108 1808 152 1770T197 1675Q197 1619 153 1581T46 1542Q-15 1542 -60 1580T-105 1675ZM414 1675Q414 1731 459 1769T565 1808Q627 1808 671 1770T716
1675Q716 1619 672 1581T565 1542Q504 1542 459 1580T414 1675Z" />
<glyph unicode="&#xd0;" horiz-adv-x="1355" d="M614 0H291L293 270H614Q714 270 783 318T889 461T926 697V760Q926 865 906 944T845 1077T746 1158T609 1185H285V1456H609Q757 1456 880 1406T1094 1262T1234 1041T1284 758V697Q1284 543 1235 415T1095 194T883
51T614 0ZM492 1456V0H141V1456H492ZM730 826V635H-1V826H730Z" />
<glyph unicode="&#xd1;" horiz-adv-x="1438" d="M1327 1456V0H977L462 906V0H111V1456H462L977 550V1456H1327ZM926 1848L1112 1837Q1112 1764 1083 1702T1001 1602T881 1564Q835 1564 800 1576T734 1606T672 1635T602 1648Q571 1648 549 1626T526 1558L338 1568Q338
1639 367 1701T449 1802T569 1841Q608 1841 643 1829T711 1800T777 1771T847 1758Q879 1758 902 1780T926 1848Z" />
<glyph unicode="&#xd2;" horiz-adv-x="1414" d="M1343 757V698Q1343 531 1297 399T1165 173T964 30T708 -20Q567 -20 451 29T249 172T117 398T70 698V757Q70 924 116 1057T247 1283T448 1426T706 1476Q846 1476 962 1427T1164 1284T1296 1057T1343 757ZM987 698V759Q987
867 969 949T914 1088T826 1172T706 1201Q636 1201 584 1173T497 1088T445 950T427 759V698Q427 591 444 509T497 369T585 283T708 254Q775 254 827 283T914 369T968 508T987 698ZM665 1846L864 1532H591L309 1846H665Z" />
<glyph unicode="&#xd3;" horiz-adv-x="1414" d="M1343 757V698Q1343 531 1297 399T1165 173T964 30T708 -20Q567 -20 451 29T249 172T117 398T70 698V757Q70 924 116 1057T247 1283T448 1426T706 1476Q846 1476 962 1427T1164 1284T1296 1057T1343 757ZM987 698V759Q987
867 969 949T914 1088T826 1172T706 1201Q636 1201 584 1173T497 1088T445 950T427 759V698Q427 591 444 509T497 369T585 283T708 254Q775 254 827 283T914 369T968 508T987 698ZM550 1532L748 1846H1104L825 1532H550Z" />
<glyph unicode="&#xd4;" horiz-adv-x="1414" d="M1343 757V698Q1343 531 1297 399T1165 173T964 30T708 -20Q567 -20 451 29T249 172T117 398T70 698V757Q70 924 116 1057T247 1283T448 1426T706 1476Q846 1476 962 1427T1164 1284T1296 1057T1343 757ZM987 698V759Q987
867 969 949T914 1088T826 1172T706 1201Q636 1201 584 1173T497 1088T445 950T427 759V698Q427 591 444 509T497 369T585 283T708 254Q775 254 827 283T914 369T968 508T987 698ZM801 1846L1129 1565V1552H864L704 1688L546 1552H286V1569L608 1846H801Z" />
<glyph unicode="&#xd5;" horiz-adv-x="1414" d="M1343 757V698Q1343 531 1297 399T1165 173T964 30T708 -20Q567 -20 451 29T249 172T117 398T70 698V757Q70 924 116 1057T247 1283T448 1426T706 1476Q846 1476 962 1427T1164 1284T1296 1057T1343 757ZM987 698V759Q987
867 969 949T914 1088T826 1172T706 1201Q636 1201 584 1173T497 1088T445 950T427 759V698Q427 591 444 509T497 369T585 283T708 254Q775 254 827 283T914 369T968 508T987 698ZM904 1848L1090 1837Q1090 1764 1061 1702T979 1602T859 1564Q813 1564 778 1576T712
1606T650 1635T580 1648Q549 1648 527 1626T504 1558L316 1568Q316 1639 345 1701T427 1802T547 1841Q586 1841 621 1829T689 1800T755 1771T825 1758Q857 1758 880 1780T904 1848Z" />
<glyph unicode="&#xd6;" horiz-adv-x="1414" d="M1343 757V698Q1343 531 1297 399T1165 173T964 30T708 -20Q567 -20 451 29T249 172T117 398T70 698V757Q70 924 116 1057T247 1283T448 1426T706 1476Q846 1476 962 1427T1164 1284T1296 1057T1343 757ZM987 698V759Q987
867 969 949T914 1088T826 1172T706 1201Q636 1201 584 1173T497 1088T445 950T427 759V698Q427 591 444 509T497 369T585 283T708 254Q775 254 827 283T914 369T968 508T987 698ZM291 1675Q291 1731 336 1769T442 1808Q504 1808 548 1770T593 1675Q593 1619 549
1581T442 1542Q381 1542 336 1580T291 1675ZM810 1675Q810 1731 855 1769T961 1808Q1023 1808 1067 1770T1112 1675Q1112 1619 1068 1581T961 1542Q900 1542 855 1580T810 1675Z" />
<glyph unicode="&#xd7;" horiz-adv-x="1084" d="M246 198L53 381L832 1175L1025 992L246 198ZM832 198L53 992L246 1175L1025 381L832 198Z" />
<glyph unicode="&#xd8;" horiz-adv-x="1410" d="M1273 1518L347 -95H139L1066 1518H1273ZM1355 757V698Q1355 531 1309 399T1177 173T975 30T719 -20Q607 -20 509 12T333 104T198 253T111 453T81 698V757Q81 924 127 1057T258 1283T459 1426T717 1476Q829 1476
926 1444T1102 1351T1237 1203T1324 1003T1355 757ZM998 698V759Q998 845 986 915T951 1039T893 1128T815 1182T717 1201Q647 1201 595 1173T508 1088T456 950T438 759V698Q438 613 449 543T483 419T540 329T618 273T719 254Q786 254 838 283T925 369T979 508T998
698Z" />
<glyph unicode="&#xd9;" horiz-adv-x="1361" d="M901 1456H1252V505Q1252 335 1181 218T982 40T681 -20Q510 -20 381 40T179 217T106 505V1456H458V505Q458 415 484 359T560 276T681 250Q753 250 802 276T876 358T901 505V1456ZM635 1846L834 1532H561L279 1846H635Z" />
<glyph unicode="&#xda;" horiz-adv-x="1361" d="M901 1456H1252V505Q1252 335 1181 218T982 40T681 -20Q510 -20 381 40T179 217T106 505V1456H458V505Q458 415 484 359T560 276T681 250Q753 250 802 276T876 358T901 505V1456ZM520 1532L718 1846H1074L795 1532H520Z" />
<glyph unicode="&#xdb;" horiz-adv-x="1361" d="M901 1456H1252V505Q1252 335 1181 218T982 40T681 -20Q510 -20 381 40T179 217T106 505V1456H458V505Q458 415 484 359T560 276T681 250Q753 250 802 276T876 358T901 505V1456ZM771 1846L1099 1565V1552H834L674
1688L516 1552H256V1569L578 1846H771Z" />
<glyph unicode="&#xdc;" horiz-adv-x="1361" d="M901 1456H1252V505Q1252 335 1181 218T982 40T681 -20Q510 -20 381 40T179 217T106 505V1456H458V505Q458 415 484 359T560 276T681 250Q753 250 802 276T876 358T901 505V1456ZM261 1675Q261 1731 306 1769T412
1808Q474 1808 518 1770T563 1675Q563 1619 519 1581T412 1542Q351 1542 306 1580T261 1675ZM780 1675Q780 1731 825 1769T931 1808Q993 1808 1037 1770T1082 1675Q1082 1619 1038 1581T931 1542Q870 1542 825 1580T780 1675Z" />
<glyph unicode="&#xdd;" horiz-adv-x="1286" d="M375 1456L643 824L912 1456H1290L822 523V0H465V523L-4 1456H375ZM490 1532L688 1846H1044L765 1532H490Z" />
<glyph unicode="&#xde;" horiz-adv-x="1266" d="M117 1456H455V0H117V1456ZM219 1198H654Q836 1198 960 1139T1149 977T1214 738Q1214 604 1150 500T961 337T654 278H414V538H654Q734 538 782 566T853 639T876 736Q876 789 854 835T783 909T654 938H455L219 1198Z" />
<glyph unicode="&#xdf;" horiz-adv-x="1330" d="M472 1093V0H135V1099Q135 1213 170 1299T271 1444T433 1531T648 1561Q768 1561 868 1518T1030 1391T1091 1181Q1091 1109 1077 1069T1044 999T1011 933T996 835Q996 800 1024 765T1093 692T1175 607T1244 502T1272
368Q1272 248 1219 161T1059 27T795 -20Q745 -20 694 -14T598 3T526 31L586 284Q616 268 669 254T796 240Q836 240 867 254T917 297T936 365Q936 412 908 448T839 518T756 593T686 687T658 817Q658 887 672 929T705 1003T738 1072T752 1167Q752 1206 734 1236T684
1284T611 1302Q570 1302 539 1284T490 1220T472 1093Z" />
<glyph unicode="&#xe0;" horiz-adv-x="1088" d="M657 272V718Q657 764 644 797T603 848T528 867Q490 867 463 854T422 815T408 749H71Q71 824 104 888T200 1001T350 1075T546 1102Q675 1102 776 1059T937 931T996 716V273Q996 167 1008 113T1042 17V0H704Q680
50 669 122T657 272ZM698 661L700 481H551Q504 481 472 468T420 433T392 382T383 323Q383 293 397 270T437 233T493 220Q549 220 588 241T649 294T670 352L744 214Q724 174 699 133T636 58T544 2T413 -20Q313 -20 230 21T96 135T46 305Q46 389 76 455T169 567T327
637T553 661H698ZM496 1536L695 1222H422L140 1536H496Z" />
<glyph unicode="&#xe1;" horiz-adv-x="1088" d="M657 272V718Q657 764 644 797T603 848T528 867Q490 867 463 854T422 815T408 749H71Q71 824 104 888T200 1001T350 1075T546 1102Q675 1102 776 1059T937 931T996 716V273Q996 167 1008 113T1042 17V0H704Q680
50 669 122T657 272ZM698 661L700 481H551Q504 481 472 468T420 433T392 382T383 323Q383 293 397 270T437 233T493 220Q549 220 588 241T649 294T670 352L744 214Q724 174 699 133T636 58T544 2T413 -20Q313 -20 230 21T96 135T46 305Q46 389 76 455T169 567T327
637T553 661H698ZM381 1222L579 1536H935L656 1222H381Z" />
<glyph unicode="&#xe2;" horiz-adv-x="1088" d="M657 272V718Q657 764 644 797T603 848T528 867Q490 867 463 854T422 815T408 749H71Q71 824 104 888T200 1001T350 1075T546 1102Q675 1102 776 1059T937 931T996 716V273Q996 167 1008 113T1042 17V0H704Q680
50 669 122T657 272ZM698 661L700 481H551Q504 481 472 468T420 433T392 382T383 323Q383 293 397 270T437 233T493 220Q549 220 588 241T649 294T670 352L744 214Q724 174 699 133T636 58T544 2T413 -20Q313 -20 230 21T96 135T46 305Q46 389 76 455T169 567T327
637T553 661H698ZM632 1536L960 1255V1242H695L535 1378L377 1242H117V1259L439 1536H632Z" />
<glyph unicode="&#xe3;" horiz-adv-x="1088" d="M657 272V718Q657 764 644 797T603 848T528 867Q490 867 463 854T422 815T408 749H71Q71 824 104 888T200 1001T350 1075T546 1102Q675 1102 776 1059T937 931T996 716V273Q996 167 1008 113T1042 17V0H704Q680
50 669 122T657 272ZM698 661L700 481H551Q504 481 472 468T420 433T392 382T383 323Q383 293 397 270T437 233T493 220Q549 220 588 241T649 294T670 352L744 214Q724 174 699 133T636 58T544 2T413 -20Q313 -20 230 21T96 135T46 305Q46 389 76 455T169 567T327
637T553 661H698ZM735 1794L921 1783Q921 1710 892 1648T810 1548T690 1510Q644 1510 609 1522T543 1552T481 1581T411 1594Q380 1594 358 1572T335 1504L147 1514Q147 1585 176 1647T258 1748T378 1787Q417 1787 452 1775T520 1746T586 1717T656 1704Q688 1704
711 1726T735 1794Z" />
<glyph unicode="&#xe4;" horiz-adv-x="1088" d="M657 272V718Q657 764 644 797T603 848T528 867Q490 867 463 854T422 815T408 749H71Q71 824 104 888T200 1001T350 1075T546 1102Q675 1102 776 1059T937 931T996 716V273Q996 167 1008 113T1042 17V0H704Q680
50 669 122T657 272ZM698 661L700 481H551Q504 481 472 468T420 433T392 382T383 323Q383 293 397 270T437 233T493 220Q549 220 588 241T649 294T670 352L744 214Q724 174 699 133T636 58T544 2T413 -20Q313 -20 230 21T96 135T46 305Q46 389 76 455T169 567T327
637T553 661H698ZM122 1365Q122 1421 167 1459T273 1498Q335 1498 379 1460T424 1365Q424 1309 380 1271T273 1232Q212 1232 167 1270T122 1365ZM641 1365Q641 1421 686 1459T792 1498Q854 1498 898 1460T943 1365Q943 1309 899 1271T792 1232Q731 1232 686 1270T641
1365Z" />
<glyph unicode="&#xe5;" horiz-adv-x="1088" d="M657 272V718Q657 764 644 797T603 848T528 867Q490 867 463 854T422 815T408 749H71Q71 824 104 888T200 1001T350 1075T546 1102Q675 1102 776 1059T937 931T996 716V273Q996 167 1008 113T1042 17V0H704Q680
50 669 122T657 272ZM698 661L700 481H551Q504 481 472 468T420 433T392 382T383 323Q383 293 397 270T437 233T493 220Q549 220 588 241T649 294T670 352L744 214Q724 174 699 133T636 58T544 2T413 -20Q313 -20 230 21T96 135T46 305Q46 389 76 455T169 567T327
637T553 661H698ZM313 1419Q313 1474 342 1520T421 1594T537 1622Q635 1622 698 1562T762 1419Q762 1364 733 1319T654 1247T537 1220Q440 1220 377 1278T313 1419ZM434 1419Q434 1376 461 1346T537 1315Q586 1315 613 1345T641 1419Q641 1463 614 1494T537 1525Q489
1525 462 1494T434 1419Z" />
<glyph unicode="&#xe6;" horiz-adv-x="1730" d="M717 183V701Q717 745 702 776T657 825T584 842Q536 842 504 829T454 792T437 740L99 759Q99 834 133 896T232 1005T386 1076T589 1102Q728 1102 830 1057T988 923T1044 699V218L717 183ZM761 655L764 451H583Q523
451 482 433T420 384T399 320Q399 287 415 263T464 225T549 212Q586 212 624 225T694 258T745 303T765 349L918 193Q893 145 838 96T694 13T485 -20Q348 -20 254 22T110 142T61 324Q61 403 94 464T193 568T356 633T581 655H761ZM1238 -20Q1112 -20 1015 17T851
122T750 282T716 485V564Q716 683 747 781T842 952T1002 1063T1227 1102Q1333 1102 1417 1068T1562 970T1654 816T1686 612V435H845V646H1356V672Q1356 726 1341 764T1298 822T1227 842Q1173 842 1137 822T1081 764T1053 675T1044 564V485Q1044 432 1057 388T1099
310T1174 259T1285 240Q1382 240 1444 259T1569 307L1651 101Q1610 70 1546 42T1402 -3T1238 -20Z" />
<glyph unicode="&#xe7;" horiz-adv-x="1065" d="M552 240Q599 240 632 257T683 307T700 386H1017Q1018 264 958 173T794 31T560 -20Q433 -20 338 21T180 137T85 312T53 529V552Q53 669 84 769T179 944T337 1060T558 1102Q693 1102 796 1051T959 903T1017 668H700Q701
717 685 756T636 818T550 842Q498 842 466 819T418 756T396 663T390 552V529Q390 469 395 417T418 325T467 263T552 240ZM441 10H698L687 -51Q743 -61 790 -99T837 -224Q837 -280 813 -325T742 -404T625 -454T463 -472L456 -286Q482 -286 502 -278T533 -253T545
-209Q545 -183 532 -169T488 -147T410 -136L441 10Z" />
<glyph unicode="&#xe8;" horiz-adv-x="1116" d="M619 -20Q487 -20 383 21T208 136T99 304T61 505V543Q61 662 94 763T192 941T355 1059T583 1102Q698 1102 789 1065T943 959T1040 792T1074 572V435H190V646H745V672Q746 726 727 764T670 822T580 842Q525 842 490
818T435 753T407 657T399 543V505Q399 445 415 396T463 313T539 259T641 240Q710 240 777 266T892 352L1045 170Q1012 123 952 79T807 8T619 -20ZM495 1537L694 1223H421L139 1537H495Z" />
<glyph unicode="&#xe9;" horiz-adv-x="1116" d="M619 -20Q487 -20 383 21T208 136T99 304T61 505V543Q61 662 94 763T192 941T355 1059T583 1102Q698 1102 789 1065T943 959T1040 792T1074 572V435H190V646H745V672Q746 726 727 764T670 822T580 842Q525 842 490
818T435 753T407 657T399 543V505Q399 445 415 396T463 313T539 259T641 240Q710 240 777 266T892 352L1045 170Q1012 123 952 79T807 8T619 -20ZM380 1223L578 1537H934L655 1223H380Z" />
<glyph unicode="&#xea;" horiz-adv-x="1116" d="M619 -20Q487 -20 383 21T208 136T99 304T61 505V543Q61 662 94 763T192 941T355 1059T583 1102Q698 1102 789 1065T943 959T1040 792T1074 572V435H190V646H745V672Q746 726 727 764T670 822T580 842Q525 842 490
818T435 753T407 657T399 543V505Q399 445 415 396T463 313T539 259T641 240Q710 240 777 266T892 352L1045 170Q1012 123 952 79T807 8T619 -20ZM631 1537L959 1256V1243H694L534 1379L376 1243H116V1260L438 1537H631Z" />
<glyph unicode="&#xeb;" horiz-adv-x="1116" d="M619 -20Q487 -20 383 21T208 136T99 304T61 505V543Q61 662 94 763T192 941T355 1059T583 1102Q698 1102 789 1065T943 959T1040 792T1074 572V435H190V646H745V672Q746 726 727 764T670 822T580 842Q525 842 490
818T435 753T407 657T399 543V505Q399 445 415 396T463 313T539 259T641 240Q710 240 777 266T892 352L1045 170Q1012 123 952 79T807 8T619 -20ZM121 1366Q121 1422 166 1460T272 1499Q334 1499 378 1461T423 1366Q423 1310 379 1272T272 1233Q211 1233 166 1271T121
1366ZM640 1366Q640 1422 685 1460T791 1499Q853 1499 897 1461T942 1366Q942 1310 898 1272T791 1233Q730 1233 685 1271T640 1366Z" />
<glyph unicode="&#xec;" horiz-adv-x="584" d="M462 1082V0H124V1082H462ZM254 1515L453 1201H180L-102 1515H254Z" />
<glyph unicode="&#xed;" horiz-adv-x="584" d="M462 1082V0H124V1082H462ZM139 1457L337 1771H693L414 1457H139Z" />
<glyph unicode="&#xee;" horiz-adv-x="584" d="M462 1082V0H124V1082H462ZM390 1515L718 1234V1221H453L293 1357L135 1221H-125V1238L197 1515H390Z" />
<glyph unicode="&#xef;" horiz-adv-x="584" d="M462 1082V0H124V1082H462ZM-120 1344Q-120 1400 -75 1438T31 1477Q93 1477 137 1439T182 1344Q182 1288 138 1250T31 1211Q-30 1211 -75 1249T-120 1344ZM399 1344Q399 1400 444 1438T550 1477Q612 1477 656 1439T701
1344Q701 1288 657 1250T550 1211Q489 1211 444 1249T399 1344Z" />
<glyph unicode="&#xf0;" horiz-adv-x="1166" d="M227 1335L334 1579Q508 1544 652 1465T903 1266T1066 994T1124 656V593Q1124 457 1084 345T970 150T797 24T581 -20Q465 -20 370 17T207 122T102 277T65 468Q65 579 94 669T180 825T321 926T518 961Q631 961 722
913T870 779T939 578L820 580Q820 603 806 627T764 673T693 707T592 720Q543 720 507 703T448 653T414 574T402 468Q402 419 414 377T450 305T508 257T585 240Q636 240 674 263T736 329T773 429T785 553V658Q785 809 738 923T612 1119T433 1254T227 1335ZM989 1386L413
1030L335 1148L912 1504L989 1386Z" />
<glyph unicode="&#xf1;" horiz-adv-x="1156" d="M426 851V0H89V1082H405L426 851ZM386 578L307 576Q307 700 337 797T422 963T553 1066T724 1102Q799 1102 861 1080T969 1009T1039 880T1064 681V0H725V682Q725 747 707 781T655 829T572 842Q520 842 484 822T427
767T396 683T386 578ZM778 1794L964 1783Q964 1710 935 1648T853 1548T733 1510Q687 1510 652 1522T586 1552T524 1581T454 1594Q423 1594 401 1572T378 1504L190 1514Q190 1585 219 1647T301 1748T421 1787Q460 1787 495 1775T563 1746T629 1717T699 1704Q731
1704 754 1726T778 1794Z" />
<glyph unicode="&#xf2;" horiz-adv-x="1151" d="M53 530V551Q53 670 87 770T187 945T350 1060T574 1102Q702 1102 799 1061T963 945T1063 771T1097 551V530Q1097 412 1063 312T963 137T800 21T576 -20Q449 -20 351 21T187 136T87 311T53 530ZM390 551V530Q390
469 399 416T429 324T486 262T576 240Q629 240 664 262T721 323T751 416T760 530V551Q760 610 751 662T721 755T664 819T574 842Q521 842 486 819T429 756T399 663T390 551ZM537 1536L736 1222H463L181 1536H537Z" />
<glyph unicode="&#xf3;" horiz-adv-x="1151" d="M53 530V551Q53 670 87 770T187 945T350 1060T574 1102Q702 1102 799 1061T963 945T1063 771T1097 551V530Q1097 412 1063 312T963 137T800 21T576 -20Q449 -20 351 21T187 136T87 311T53 530ZM390 551V530Q390
469 399 416T429 324T486 262T576 240Q629 240 664 262T721 323T751 416T760 530V551Q760 610 751 662T721 755T664 819T574 842Q521 842 486 819T429 756T399 663T390 551ZM422 1222L620 1536H976L697 1222H422Z" />
<glyph unicode="&#xf4;" horiz-adv-x="1151" d="M53 530V551Q53 670 87 770T187 945T350 1060T574 1102Q702 1102 799 1061T963 945T1063 771T1097 551V530Q1097 412 1063 312T963 137T800 21T576 -20Q449 -20 351 21T187 136T87 311T53 530ZM390 551V530Q390
469 399 416T429 324T486 262T576 240Q629 240 664 262T721 323T751 416T760 530V551Q760 610 751 662T721 755T664 819T574 842Q521 842 486 819T429 756T399 663T390 551ZM673 1536L1001 1255V1242H736L576 1378L418 1242H158V1259L480 1536H673Z" />
<glyph unicode="&#xf5;" horiz-adv-x="1151" d="M53 530V551Q53 670 87 770T187 945T350 1060T574 1102Q702 1102 799 1061T963 945T1063 771T1097 551V530Q1097 412 1063 312T963 137T800 21T576 -20Q449 -20 351 21T187 136T87 311T53 530ZM390 551V530Q390
469 399 416T429 324T486 262T576 240Q629 240 664 262T721 323T751 416T760 530V551Q760 610 751 662T721 755T664 819T574 842Q521 842 486 819T429 756T399 663T390 551ZM776 1794L962 1783Q962 1710 933 1648T851 1548T731 1510Q685 1510 650 1522T584 1552T522
1581T452 1594Q421 1594 399 1572T376 1504L188 1514Q188 1585 217 1647T299 1748T419 1787Q458 1787 493 1775T561 1746T627 1717T697 1704Q729 1704 752 1726T776 1794Z" />
<glyph unicode="&#xf6;" horiz-adv-x="1151" d="M53 530V551Q53 670 87 770T187 945T350 1060T574 1102Q702 1102 799 1061T963 945T1063 771T1097 551V530Q1097 412 1063 312T963 137T800 21T576 -20Q449 -20 351 21T187 136T87 311T53 530ZM390 551V530Q390
469 399 416T429 324T486 262T576 240Q629 240 664 262T721 323T751 416T760 530V551Q760 610 751 662T721 755T664 819T574 842Q521 842 486 819T429 756T399 663T390 551ZM163 1365Q163 1421 208 1459T314 1498Q376 1498 420 1460T465 1365Q465 1309 421 1271T314
1232Q253 1232 208 1270T163 1365ZM682 1365Q682 1421 727 1459T833 1498Q895 1498 939 1460T984 1365Q984 1309 940 1271T833 1232Q772 1232 727 1270T682 1365Z" />
<glyph unicode="&#xf7;" horiz-adv-x="1167" d="M1104 807V563H60V807H1104ZM394 1086Q394 1158 446 1204T581 1250Q664 1250 715 1204T767 1086Q767 1014 716 968T581 922Q498 922 446 968T394 1086ZM394 277Q394 349 446 395T581 441Q664 441 715 395T767 277Q767
205 716 159T581 113Q498 113 446 159T394 277Z" />
<glyph unicode="&#xf8;" horiz-adv-x="1152" d="M997 1219L334 -145H157L820 1219H997ZM53 530V551Q53 670 87 770T187 945T350 1060T574 1102Q702 1102 799 1061T963 945T1063 771T1097 551V530Q1097 412 1063 312T963 137T800 21T576 -20Q449 -20 351 21T187
136T87 311T53 530ZM390 551V530Q390 469 399 416T429 324T486 262T576 240Q629 240 664 262T721 323T751 416T760 530V551Q760 610 751 662T721 755T664 819T574 842Q521 842 486 819T429 756T399 663T390 551Z" />
<glyph unicode="&#xf9;" horiz-adv-x="1156" d="M727 263V1082H1065V0H749L727 263ZM759 483L847 485Q847 376 821 284T745 123T621 18T451 -20Q371 -20 305 2T190 73T116 198T89 382V1082H426V380Q426 344 435 318T461 275T503 249T562 240Q638 240 681 272T741
359T759 483ZM537 1536L736 1222H463L181 1536H537Z" />
<glyph unicode="&#xfa;" horiz-adv-x="1156" d="M727 263V1082H1065V0H749L727 263ZM759 483L847 485Q847 376 821 284T745 123T621 18T451 -20Q371 -20 305 2T190 73T116 198T89 382V1082H426V380Q426 344 435 318T461 275T503 249T562 240Q638 240 681 272T741
359T759 483ZM422 1222L620 1536H976L697 1222H422Z" />
<glyph unicode="&#xfb;" horiz-adv-x="1156" d="M727 263V1082H1065V0H749L727 263ZM759 483L847 485Q847 376 821 284T745 123T621 18T451 -20Q371 -20 305 2T190 73T116 198T89 382V1082H426V380Q426 344 435 318T461 275T503 249T562 240Q638 240 681 272T741
359T759 483ZM673 1536L1001 1255V1242H736L576 1378L418 1242H158V1259L480 1536H673Z" />
<glyph unicode="&#xfc;" horiz-adv-x="1156" d="M727 263V1082H1065V0H749L727 263ZM759 483L847 485Q847 376 821 284T745 123T621 18T451 -20Q371 -20 305 2T190 73T116 198T89 382V1082H426V380Q426 344 435 318T461 275T503 249T562 240Q638 240 681 272T741
359T759 483ZM163 1365Q163 1421 208 1459T314 1498Q376 1498 420 1460T465 1365Q465 1309 421 1271T314 1232Q253 1232 208 1270T163 1365ZM682 1365Q682 1421 727 1459T833 1498Q895 1498 939 1460T984 1365Q984 1309 940 1271T833 1232Q772 1232 727 1270T682
1365Z" />
<glyph unicode="&#xfd;" horiz-adv-x="1061" d="M427 127L707 1082H1069L634 -161Q620 -202 597 -249T534 -340T432 -410T277 -437Q228 -437 206 -433T137 -417V-176Q150 -176 159 -176T181 -176Q235 -176 267 -165T317 -133T345 -82L427 127ZM356 1082L569 325L606
-32H380L-5 1082H356ZM373 1222L571 1536H927L648 1222H373Z" />
<glyph unicode="&#xfe;" horiz-adv-x="1149" d="M434 1536V-416H95V1536H434ZM1097 554V533Q1097 415 1070 314T990 138T859 22T677 -20Q579 -20 510 23T393 142T317 316T271 523V550Q288 667 317 767T392 943T508 1060T675 1102Q778 1102 857 1063T989 952T1070
778T1097 554ZM760 533V554Q760 617 751 669T723 761T671 821T592 842Q538 842 502 826T444 776T413 693T405 577V495Q403 438 412 391T443 311T502 259T594 240Q642 240 674 262T725 325T752 419T760 533Z" />
<glyph unicode="&#xff;" horiz-adv-x="1061" d="M427 127L707 1082H1069L634 -161Q620 -202 597 -249T534 -340T432 -410T277 -437Q228 -437 206 -433T137 -417V-176Q150 -176 159 -176T181 -176Q235 -176 267 -165T317 -133T345 -82L427 127ZM356 1082L569 325L606
-32H380L-5 1082H356ZM115 1365Q115 1421 160 1459T266 1498Q328 1498 372 1460T417 1365Q417 1309 373 1271T266 1232Q205 1232 160 1270T115 1365ZM634 1365Q634 1421 679 1459T785 1498Q847 1498 891 1460T936 1365Q936 1309 892 1271T785 1232Q724 1232 679
1270T634 1365Z" />
<glyph unicode="&#x2013;" horiz-adv-x="1266" d="M1201 842V578H146V842H1201Z" />
<glyph unicode="&#x2014;" horiz-adv-x="1541" d="M1492 842V578H86V842H1492Z" />
<glyph unicode="&#x2018;" horiz-adv-x="511" d="M108 1042V1204Q108 1271 134 1341T203 1472T292 1576L439 1496Q408 1439 382 1370T355 1203V1042H108Z" />
<glyph unicode="&#x2019;" horiz-adv-x="498" d="M397 1536V1372Q397 1305 371 1235T303 1104T214 1000L66 1080Q98 1137 124 1206T151 1373V1536H397Z" />
<glyph unicode="&#x201a;" horiz-adv-x="556" d="M416 249L414 62Q414 -5 388 -75T320 -206T231 -310L83 -230Q115 -173 136 -104T157 63V249H416Z" />
<glyph unicode="&#x201c;" horiz-adv-x="875" d="M115 1042V1204Q115 1271 141 1341T210 1472T299 1576L446 1496Q415 1439 389 1370T362 1203V1042H115ZM466 1042V1204Q466 1271 492 1341T561 1472T650 1576L797 1496Q766 1439 740 1370T713 1203V1042H466Z" />
<glyph unicode="&#x201d;" horiz-adv-x="881" d="M411 1536V1372Q411 1305 385 1235T317 1104T228 1000L80 1080Q112 1137 138 1206T165 1373V1536H411ZM773 1536V1372Q773 1305 747 1235T679 1104T590 1000L442 1080Q474 1137 500 1206T527 1373V1536H773Z" />
<glyph unicode="&#x201e;" horiz-adv-x="876" d="M416 269L414 62Q414 -8 391 -82T328 -221T243 -330L83 -250Q115 -189 136 -115T157 63V269H416ZM777 269L776 62Q776 -8 750 -82T681 -221T593 -330L434 -250Q466 -189 492 -115T519 63V269H777Z" />
<glyph unicode="&#x2022;" horiz-adv-x="758" d="M135 726V763Q135 869 203 936T387 1004Q506 1004 574 937T642 763V726Q642 621 575 555T389 488Q273 488 204 554T135 726Z" />
<glyph unicode="&#x2039;" horiz-adv-x="651" d="M587 915L352 511L108 512V525L381 915H587ZM352 520L587 116H381L108 506V519L352 520Z" />
<glyph unicode="&#x203a;" horiz-adv-x="621" d="M77 115L311 519L556 518V505L283 115H77ZM77 914H283L556 524V511L311 510L77 914Z" />
</font>
</defs>
</svg>
