<?xml version="1.0" standalone="no"?>
<!DOCTYPE svg PUBLIC "-//W3C//DTD SVG 1.1//EN" "http://www.w3.org/Graphics/SVG/1.1/DTD/svg11.dtd">
<svg xmlns="http://www.w3.org/2000/svg">
<defs >
<font id="Roboto" horiz-adv-x="1137" ><font-face
    font-family="Roboto Medium"
    units-per-em="2048"
    panose-1="2 0 0 0 0 0 0 0 0 0"
    ascent="1900"
    descent="-500"
    alphabetic="0" />
<glyph unicode=" " horiz-adv-x="504" />
<glyph unicode="!" horiz-adv-x="526" d="M540 1456L339 429H136L291 1456H540ZM51 110Q51 169 90 206T186 245Q242 246 280 211T320 118Q320 61 281 23T185 -15Q129 -16 91 19T51 110Z" />
<glyph unicode="&quot;" horiz-adv-x="634" d="M409 1536L386 1387L295 1016H157L216 1388L239 1536H409ZM700 1536L677 1387L585 1016H448L508 1396L530 1536H700Z" />
<glyph unicode="#" horiz-adv-x="1198" d="M130 0L642 1456H808L295 0H130ZM508 0L1021 1456H1185L673 0H508ZM1216 885H206L233 1040H1244L1216 885ZM1061 410H50L77 565H1088L1061 410Z" />
<glyph unicode="$" horiz-adv-x="1129" d="M840 1689L792 1390H641L689 1689H840ZM566 56L524 -212H374L417 56H566ZM763 386Q771 451 747 496T677 572T578 626Q477 669 394 725T264 863T225 1068Q233 1197 301 1289T475 1431T707 1477Q811 1475 886 1438T1008
1337T1076 1188T1092 1007H858Q860 1052 855 1099T833 1187T782 1253T691 1280Q626 1282 577 1256T497 1181T459 1070Q451 1003 475 959T546 885T647 830Q747 787 829 730T958 591T997 388Q987 252 915 160T732 22T491 -22Q386 -20 306 14T171 110T91 256T70 443H306Q303
391 311 343T342 258T405 199T503 176Q570 175 626 199T718 271T763 386Z" />
<glyph unicode="%" horiz-adv-x="1462" d="M186 1099L192 1175Q201 1263 245 1332T361 1441T523 1478Q610 1476 672 1436T765 1328T791 1176L785 1099Q776 1011 732 943T617 836T456 799Q370 801 308 840T213 947T186 1099ZM359 1176L350 1096Q347 1059 356 1024T391
966T460 942Q505 941 538 963T592 1021T619 1099L629 1177Q632 1215 623 1251T589 1310T520 1335Q474 1336 440 1314T386 1255T359 1176ZM726 279L732 356Q740 444 785 513T901 621T1062 658Q1149 656 1211 616T1304 509T1331 357L1325 279Q1316 191 1273 123T1158
15T996 -22Q910 -20 848 20T753 127T726 279ZM899 357L891 276Q889 239 898 204T932 146T1000 121Q1047 119 1080 141T1134 200T1160 279L1170 358Q1172 396 1163 432T1129 491T1060 515Q1014 516 980 494T926 436T899 357ZM1249 1240L370 112L251 190L1131 1317L1249
1240Z" />
<glyph unicode="&amp;" horiz-adv-x="1274" d="M380 793L652 962Q706 997 748 1041T797 1153Q803 1211 768 1248T676 1287Q625 1287 587 1262T525 1195T495 1107Q488 1053 507 1001T557 902T616 812L1157 0H901L459 661Q415 725 372 795T302 942T280 1101Q288
1213 342 1299T486 1432T690 1476Q779 1474 852 1435T968 1325T1005 1162Q1001 1088 969 1029T886 921T778 834L445 612Q409 586 376 552T320 478T291 392Q283 329 304 280T370 202T479 170Q583 167 669 212T821 335T927 507T981 693H1182Q1172 589 1141 496T1055
321T922 170Q913 162 905 153T886 134Q800 58 688 18T459 -20Q341 -17 245 31T95 169T49 384Q56 481 107 555T231 687T380 793Z" />
<glyph unicode="&apos;" horiz-adv-x="332" d="M405 1536L382 1397L300 1022H145L206 1407L226 1536H405Z" />
<glyph unicode="(" horiz-adv-x="688" d="M121 571L124 588Q145 734 192 890T317 1190T503 1450T755 1631L791 1490Q685 1411 608 1309T476 1089T389 845T336 593L333 572Q318 470 311 345T316 94T373 -144T505 -332L450 -463Q326 -387 253 -265T145 1T108 294T121 571Z" />
<glyph unicode=")" horiz-adv-x="695" d="M570 597L568 580Q547 433 499 277T372 -24T184 -284T-72 -464L-108 -329Q-3 -249 74 -146T206 75T294 321T347 574L351 596Q365 696 372 820T366 1072T309 1311T178 1498L235 1629Q358 1553 432 1432T542 1166T582 874T570 597Z" />
<glyph unicode="*" horiz-adv-x="881" d="M140 709L389 979L104 1068L182 1225L465 1105L512 1457H683L607 1110L915 1224L938 1049L614 958L769 685L624 590L495 881L271 602L140 709Z" />
<glyph unicode="+" horiz-adv-x="1103" d="M1067 798L1030 581H60L98 798H1067ZM768 1206L584 146H356L540 1206H768Z" />
<glyph unicode="," horiz-adv-x="444" d="M277 232L248 61Q230 -56 167 -156T11 -328L-113 -251Q-80 -203 -50 -156T2 -58T36 51L68 232H277Z" />
<glyph unicode="-" horiz-adv-x="675" d="M613 718L579 526H64L97 718H613Z" />
<glyph unicode="." horiz-adv-x="552" d="M47 116Q46 175 86 214T184 254Q242 255 281 219T321 124Q322 65 282 27T183 -13Q127 -14 87 22T47 116Z" />
<glyph unicode="/" horiz-adv-x="775" d="M889 1456L64 -125H-130L695 1456H889Z" />
<glyph unicode="0" horiz-adv-x="1129" d="M1069 850L1032 613Q1014 494 977 380T876 175T713 30T476 -20Q370 -18 299 20T183 122T119 266T97 436T106 612L141 850Q159 969 197 1082T299 1285T462 1428T697 1476Q803 1474 875 1437T991 1338T1055 1195T1078 1027T1069
850ZM793 578L839 888Q844 930 848 982T850 1086T830 1182T778 1255T684 1286Q602 1290 548 1253T461 1154T410 1021T382 886L337 577Q332 536 328 484T326 377T345 278T396 203T491 170Q573 167 627 205T714 306T765 441T793 578Z" />
<glyph unicode="1" horiz-adv-x="1129" d="M889 1461L642 0H407L611 1170L241 1049L278 1258L855 1461H889Z" />
<glyph unicode="2" horiz-adv-x="1129" d="M991 192L961 0H13L40 174L570 683Q621 732 677 791T777 917T832 1059Q839 1119 823 1170T767 1253T660 1286Q579 1289 521 1252T428 1152T383 1014L150 1013Q161 1152 233 1257T421 1421T675 1477Q794 1475 888 1429T1033
1295T1073 1082Q1066 998 1030 923T941 781T826 653T708 539L345 192H991Z" />
<glyph unicode="3" horiz-adv-x="1129" d="M418 837L548 835Q622 837 683 863T785 942T833 1070Q840 1134 822 1182T762 1257T655 1287Q589 1288 537 1262T450 1189T405 1078L170 1077Q180 1203 252 1293T432 1431T662 1477Q784 1475 880 1427T1028 1289T1071
1070Q1065 978 1020 910T904 795T750 726T586 702L396 703L418 837ZM388 649L410 781L572 780Q657 778 734 756T871 691T962 579T988 414Q981 310 936 228T817 90T653 6T462 -20Q369 -18 291 11T156 93T68 222T40 393H274Q271 328 294 279T364 202T477 172Q551
170 611 200T708 285T754 415Q763 490 739 541T665 619T541 648L388 649Z" />
<glyph unicode="4" horiz-adv-x="1129" d="M1067 519L1033 327H13L33 484L803 1456H1006L735 1088L289 520L1067 519ZM1052 1456L800 0H565L817 1456H1052Z" />
<glyph unicode="5" horiz-adv-x="1129" d="M376 678L184 727L374 1456H1139L1107 1252H541L438 894Q488 924 545 938T662 953Q764 953 837 913T956 806T1018 652T1028 473Q1019 365 978 274T869 116T708 13T505 -21Q413 -20 338 11T207 97T121 228T88 395H317Q321
333 342 283T406 203T516 171Q582 170 631 196T714 266T768 367T793 481Q798 534 790 584T759 674T694 737T593 763Q529 764 477 742T376 678Z" />
<glyph unicode="6" horiz-adv-x="1129" d="M937 1466H972L952 1269H940Q822 1270 725 1233T555 1127T434 964T370 756L339 526Q333 475 335 415T356 301T413 210T519 172Q582 170 631 196T714 268T769 369T795 479Q800 527 795 578T769 674T711 745T614 775Q543
776 483 744T381 656T323 535L236 566Q251 651 289 724T384 853T517 938T684 965Q783 963 852 921T963 810T1022 657T1030 485Q1021 380 980 288T870 126T711 16T510 -20Q395 -18 313 32T181 164T112 346T105 549L118 649Q142 818 204 965T369 1225T613 1401T937
1466Z" />
<glyph unicode="7" horiz-adv-x="1129" d="M1179 1456L1157 1312L392 0H134L895 1264H169L200 1456H1179Z" />
<glyph unicode="8" horiz-adv-x="1129" d="M994 405Q984 267 911 171T723 26T477 -20Q356 -18 259 30T109 169T64 389Q71 488 117 565T236 695T398 774T580 799Q694 797 791 750T945 616T994 405ZM761 418Q768 481 749 533T686 619T575 653Q501 655 443 622T347
530T302 401Q295 336 314 285T378 203T490 171Q564 169 622 200T716 288T761 418ZM1082 1081Q1074 959 1003 872T824 740T602 697Q496 699 405 743T261 869T215 1065Q223 1195 290 1288T465 1430T697 1476Q814 1474 904 1426T1042 1290T1082 1081ZM845 1073Q850
1128 834 1176T781 1254T683 1286Q617 1287 566 1256T485 1172T448 1056Q442 1001 457 953T510 874T609 842Q675 841 725 872T807 957T845 1073Z" />
<glyph unicode="9" horiz-adv-x="1129" d="M225 189H240Q359 188 453 220T617 315T731 467T792 672L827 924Q833 972 831 1033T812 1151T758 1245T653 1284Q591 1287 543 1258T460 1182T407 1077T382 966Q377 918 382 867T406 770T462 695T558 664Q614 663 662
683T749 741T813 825T850 923L936 895Q927 814 890 739T794 604T659 511T498 478Q398 480 328 522T216 633T157 787T147 960Q156 1064 197 1158T306 1325T466 1438T668 1476Q788 1474 868 1421T994 1281T1053 1092T1057 887L1046 800Q1028 663 986 541T876 318T714
144T500 31T232 -10H205L225 189Z" />
<glyph unicode=":" horiz-adv-x="534" d="M296 116Q295 175 335 214T433 254Q491 255 530 219T570 124Q571 65 531 27T432 -13Q376 -14 336 22T296 116ZM189 968Q188 1027 228 1066T326 1106Q384 1107 423 1071T463 976Q464 917 424 879T325 839Q269 838 229 874T189
968Z" />
<glyph unicode=";" horiz-adv-x="486" d="M170 968Q169 1027 209 1066T307 1106Q365 1107 404 1071T444 976Q445 917 405 879T306 839Q250 838 210 874T170 968ZM293 232L264 61Q246 -56 183 -156T27 -328L-97 -251Q-64 -203 -34 -156T18 -58T52 51L84 232H293Z" />
<glyph unicode="&lt;" horiz-adv-x="1011" d="M235 657L845 399L805 173L51 545L77 693L235 657ZM924 859L251 607L55 569L83 735L967 1106L924 859Z" />
<glyph unicode="=" horiz-adv-x="1117" d="M1048 978L1013 780H169L204 978H1048ZM975 554L939 356H96L130 554H975Z" />
<glyph unicode="&gt;" horiz-adv-x="1032" d="M790 617L169 873L208 1096L983 724L956 575L790 617ZM88 406L774 657L979 700L949 534L45 162L88 406Z" />
<glyph unicode="?" horiz-adv-x="966" d="M535 429L321 427Q329 510 352 577T418 701T523 812Q568 850 613 890T691 980T734 1092Q740 1142 729 1184T686 1253T597 1281Q539 1282 495 1258T422 1191T382 1093L147 1092Q160 1216 224 1303T390 1434T612 1477Q726
1474 811 1429T941 1299T976 1098Q969 1003 923 929T809 793T674 675Q612 626 580 566T535 429ZM238 112Q238 170 276 208T372 247Q429 248 467 213T506 120Q507 62 468 25T371 -13Q316 -14 278 21T238 112Z" />
<glyph unicode="@" horiz-adv-x="1782" d="M1682 526Q1666 431 1630 334T1534 155T1390 24T1195 -22Q1125 -20 1079 9T1007 87T975 194T978 314L1121 883H1295L1153 314Q1148 287 1145 254T1147 191T1171 140T1228 117Q1301 114 1353 155T1441 261T1497 397T1528
522Q1548 636 1548 745T1522 949T1439 1118T1290 1233T1063 1277Q928 1280 812 1236T601 1112T434 929T313 706T241 465Q220 354 220 244T244 37T326 -137T475 -258T700 -303Q788 -304 873 -285T1038 -231L1066 -366Q986 -417 889 -435T698 -453Q538 -451 420 -401T223
-264T102 -61T53 189T70 466Q97 613 156 754T303 1017T508 1231T764 1374T1065 1423Q1221 1421 1336 1372T1528 1237T1646 1038T1696 794T1682 526ZM680 417Q674 384 669 338T668 248T695 172T768 138Q814 136 850 160T915 224T965 305T1001 382L1067 295Q1044
237 1010 180T932 77T830 4T703 -21Q618 -18 569 25T498 135T476 277T487 417Q501 492 530 573T604 729T708 864T841 958T1005 991Q1090 990 1158 960T1293 879L1192 762Q1157 798 1114 818T1020 840Q939 842 880 802T781 696T717 556T680 417Z" />
<glyph unicode="A" horiz-adv-x="1317" d="M808 1249L173 0H-93L691 1456H862L808 1249ZM946 0L740 1276L755 1456H914L1195 0H946ZM1017 540L982 341H212L247 540H1017Z" />
<glyph unicode="B" horiz-adv-x="1254" d="M695 658H323L353 841L654 840Q725 840 789 862T897 932T952 1057Q961 1129 938 1172T865 1234T750 1255L502 1256L284 0H38L291 1456L756 1455Q849 1453 932 1432T1077 1365T1173 1248T1200 1070Q1192 958 1132 884T980
770T785 720L695 658ZM574 0H125L269 199L581 198Q656 198 720 224T826 302T880 432Q889 500 872 549T811 626T697 657L409 658L443 841L789 840L831 771Q925 762 992 718T1093 600T1121 432Q1110 282 1032 186T833 45T574 0Z" />
<glyph unicode="C" horiz-adv-x="1297" d="M950 473L1190 476Q1166 320 1080 208T863 36T577 -20Q434 -17 337 43T185 201T113 421T112 667L129 788Q149 922 202 1047T340 1270T544 1423T811 1476Q964 1473 1068 1410T1229 1234T1290 974L1047 975Q1047 1061 1024
1128T946 1234T798 1276Q696 1279 622 1237T498 1123T418 964T376 790L358 666Q348 594 348 511T368 354T441 232T590 180Q690 176 761 211T879 313T950 473Z" />
<glyph unicode="D" horiz-adv-x="1297" d="M464 0H147L184 199L471 197Q618 197 721 264T886 443T969 690L979 770Q990 855 985 939T948 1094T855 1208T690 1255L359 1256L394 1456L697 1455Q843 1452 949 1396T1123 1244T1215 1025T1225 767L1215 689Q1194 542
1132 416T972 196T746 52T464 0ZM537 1456L284 0H38L291 1456H537Z" />
<glyph unicode="E" horiz-adv-x="1123" d="M1000 199L965 0H214L248 199H1000ZM537 1456L284 0H38L291 1456H537ZM1014 848L980 652H326L361 848H1014ZM1212 1456L1177 1256H431L467 1456H1212Z" />
<glyph unicode="F" horiz-adv-x="1094" d="M537 1456L284 0H38L291 1456H537ZM1002 819L967 620H328L363 819H1002ZM1193 1456L1158 1256H438L474 1456H1193Z" />
<glyph unicode="G" horiz-adv-x="1353" d="M1254 744L1165 187Q1103 107 1011 62T814 -2T615 -20Q467 -18 365 41T203 200T123 422T119 678L134 778Q153 917 205 1043T343 1268T548 1423T821 1476Q968 1474 1072 1418T1234 1258T1303 1011H1066Q1059 1090 1032
1149T950 1241T813 1278Q708 1282 633 1238T506 1121T425 958T382 781L367 677Q357 598 360 512T389 351T474 229T633 180Q686 179 737 186T835 213T924 268L977 557H683L716 744H1254Z" />
<glyph unicode="H" horiz-adv-x="1409" d="M1121 848L1086 649H334L369 848H1121ZM537 1456L284 0H38L291 1456H537ZM1413 1456L1160 0H917L1169 1456H1413Z" />
<glyph unicode="I" horiz-adv-x="562" d="M553 1456L300 0H55L308 1456H553Z" />
<glyph unicode="J" horiz-adv-x="1103" d="M699 436L873 1456H1117L943 437Q924 299 854 195T671 34T418 -22Q284 -19 191 34T51 185T11 417H257Q252 351 266 298T321 213T434 178Q510 176 565 211T654 306T699 436Z" />
<glyph unicode="K" horiz-adv-x="1255" d="M537 1456L284 0H38L291 1456H537ZM1394 1456L697 751L304 392L305 660L585 951L1079 1456H1394ZM878 0L526 700L715 862L1153 0H878Z" />
<glyph unicode="L" horiz-adv-x="1073" d="M960 199L925 0H214L249 199H960ZM537 1456L284 0H38L291 1456H537Z" />
<glyph unicode="M" horiz-adv-x="1737" d="M395 1456H604L817 335L1419 1456H1647L855 0H681L395 1456ZM291 1456H499L366 475L283 0H38L291 1456ZM1532 1456H1742L1489 0H1244L1331 496L1532 1456Z" />
<glyph unicode="N" horiz-adv-x="1409" d="M1414 1456L1161 0H923L466 1053L284 0H38L291 1456H529L987 401L1170 1456H1414Z" />
<glyph unicode="O" horiz-adv-x="1369" d="M1298 770L1288 691Q1268 553 1215 425T1075 195T868 35T595 -20Q449 -17 349 45T193 209T117 435T114 688L125 767Q145 904 199 1032T340 1261T547 1421T819 1476Q966 1473 1065 1412T1221 1248T1296 1022T1298 770ZM1042
688L1053 771Q1062 846 1061 931T1037 1093T960 1219T805 1272Q702 1276 626 1232T497 1112T415 947T372 770L361 687Q351 613 352 527T377 364T455 237T608 183Q713 179 789 224T917 344T999 509T1042 688Z" />
<glyph unicode="P" horiz-adv-x="1268" d="M684 542L302 543L337 742L692 741Q775 741 844 769T959 855T1016 1000Q1027 1074 1005 1130T933 1219T807 1255L502 1256L284 0H38L291 1456L814 1455Q949 1452 1055 1398T1217 1243T1262 1002Q1249 845 1167 743T957
591T684 542Z" />
<glyph unicode="Q" horiz-adv-x="1369" d="M810 194L1140 -119L969 -253L645 57L810 194ZM1294 770L1283 691Q1264 553 1211 424T1070 194T863 35T591 -20Q444 -17 344 45T188 209T113 435T110 688L120 768Q140 904 194 1032T335 1261T542 1421T814 1476Q961 1473
1060 1412T1217 1249T1292 1023T1294 770ZM1037 688L1048 771Q1057 846 1057 931T1033 1093T955 1219T801 1272Q697 1276 621 1232T493 1112T410 947T367 770L356 687Q347 613 348 527T372 364T450 237T604 183Q708 179 784 224T912 344T994 509T1037 688Z" />
<glyph unicode="R" horiz-adv-x="1250" d="M291 1456L778 1455Q911 1452 1016 1405T1179 1264T1225 1026Q1216 910 1166 829T1034 691T849 598L768 562H305L338 761L662 760Q742 760 810 789T923 875T979 1014Q989 1090 967 1143T895 1224T771 1255L502 1256L284
0H38L291 1456ZM851 0L632 654L877 655L1112 14V0H851Z" />
<glyph unicode="S" horiz-adv-x="1204" d="M848 382Q857 441 837 481T780 549T695 596T602 632Q526 659 452 696T319 784T226 904T199 1067Q207 1172 258 1249T390 1378T565 1453T754 1476Q887 1473 991 1419T1154 1266T1208 1031H964Q970 1107 946 1161T869 1246T740
1278Q671 1280 607 1258T499 1188T443 1067Q435 1015 457 977T520 913T606 869T692 837Q773 809 847 771T980 679T1069 554T1093 384Q1084 277 1033 200T903 73T729 1T537 -20Q434 -19 343 12T182 102T76 247T42 441L286 440Q282 376 298 327T350 244T435 194T549
177Q617 175 681 196T791 262T848 382Z" />
<glyph unicode="T" horiz-adv-x="1210" d="M874 1456L622 0H378L631 1456H874ZM1317 1456L1282 1256H157L192 1456H1317Z" />
<glyph unicode="U" horiz-adv-x="1300" d="M1084 1456H1329L1163 485Q1140 328 1058 213T848 37T562 -21Q413 -18 304 44T142 219T106 483L272 1456H516L351 482Q341 398 360 331T432 222T576 179Q673 176 744 213T860 321T918 483L1084 1456Z" />
<glyph unicode="V" horiz-adv-x="1283" d="M576 277L1129 1456H1407L673 0H483L576 277ZM415 1456L600 255L608 0H430L154 1456H415Z" />
<glyph unicode="W" horiz-adv-x="1749" d="M456 338L909 1456H1059L998 1154L519 0H362L456 338ZM420 1456L474 324L444 0H281L181 1456H420ZM1206 350L1602 1456H1850L1296 0H1130L1206 350ZM1115 1456L1218 312L1211 0H1059L943 1176L969 1456H1115Z" />
<glyph unicode="X" horiz-adv-x="1254" d="M457 1456L673 927L1055 1456H1350L801 723L1120 0H848L626 540L234 0H-64L498 746L187 1456H457Z" />
<glyph unicode="Y" horiz-adv-x="1213" d="M422 1456L628 763L1076 1456H1360L716 524L625 0H378L474 549L161 1456H422Z" />
<glyph unicode="Z" horiz-adv-x="1198" d="M1063 199L1028 0H46L81 199H1063ZM1230 1290L145 0H-27L3 171L1089 1456H1259L1230 1290ZM1168 1456L1133 1256H196L231 1456H1168Z" />
<glyph unicode="[" horiz-adv-x="539" d="M692 1679L662 1493H503L248 -139H408L379 -326H-16L297 1679H692Z" />
<glyph unicode="\" horiz-adv-x="828" d="M486 -125L171 1456H396L711 -125H486Z" />
<glyph unicode="]" horiz-adv-x="539" d="M150 1493L180 1679H576L263 -326H-134L-105 -139H56L310 1493H150Z" />
<glyph unicode="^" horiz-adv-x="852" d="M544 1215L276 729H68L485 1456H630L544 1215ZM630 729L526 1239L524 1456H654L817 729H630Z" />
<glyph unicode="_" horiz-adv-x="889" d="M785 0L752 -188H-135L-102 0H785Z" />
<glyph unicode="`" horiz-adv-x="636" d="M459 1536L601 1235H421L207 1535L459 1536Z" />
<glyph unicode="a" horiz-adv-x="1071" d="M648 217L730 736Q736 788 723 830T676 896T585 922Q535 923 491 906T417 854T376 771L141 770Q147 855 191 918T304 1023T452 1084T608 1103Q718 1101 803 1056T932 929T966 731L887 249Q878 192 875 133T890 18L888
0L655 -1Q640 52 640 107T648 217ZM757 658L733 509L577 510Q529 510 479 501T384 470T310 411T273 317Q268 272 283 240T331 188T407 168Q466 167 523 191T623 259T682 362L745 254Q723 193 684 142T592 54T479 -3T352 -22Q262 -20 188 19T71 130T33 294Q38 399
86 469T211 581T379 641T559 659L757 658Z" />
<glyph unicode="b" horiz-adv-x="1117" d="M283 1536H519L290 217L231 0H16L283 1536ZM1031 557L1029 536Q1016 436 983 337T891 155T747 25T545 -21Q442 -19 374 30T266 157T213 326T203 506L211 574Q228 667 265 761T363 934T506 1059T697 1103Q809 1100 879
1050T985 919T1031 744T1031 557ZM793 537L796 559Q802 610 802 670T786 784T734 872T626 909Q564 912 514 890T426 828T363 737T325 631L297 448Q294 381 314 319T380 217T501 174Q576 171 628 204T714 291T767 410T793 537Z" />
<glyph unicode="c" horiz-adv-x="1037" d="M480 171Q539 170 588 193T669 259T715 358L938 359Q925 243 857 157T687 25T472 -20Q357 -18 276 27T144 148T75 320T65 521L69 557Q81 668 122 767T233 942T398 1062T612 1102Q732 1100 819 1047T952 903T997 694L776
695Q776 751 758 799T700 878T597 911Q523 913 471 882T384 798T330 682T303 556L299 521Q294 468 295 408T314 294T370 207T480 171Z" />
<glyph unicode="d" horiz-adv-x="1119" d="M697 238L922 1536H1159L892 0H680L697 238ZM65 521L67 542Q80 642 114 742T208 925T354 1057T558 1103Q660 1100 728 1050T834 921T887 751T896 572L888 504Q872 412 834 318T736 146T592 22T401 -21Q294 -17 224 33T116
164T67 338T65 521ZM305 544L303 523Q297 471 298 412T314 300T367 211T473 173Q552 170 613 209T716 311T774 445L802 628Q805 678 796 727T762 816T699 881T603 908Q529 911 476 878T388 790T333 670T305 544Z" />
<glyph unicode="e" horiz-adv-x="1064" d="M502 -20Q391 -18 306 23T164 136T83 301T66 501L70 542Q81 651 123 752T235 933T402 1059T616 1102Q729 1100 807 1055T931 936T992 767T997 572L983 469H171L199 642L772 641L776 662Q785 725 770 781T713 873T603
911Q528 913 475 880T386 791T332 670T304 542L300 502Q294 443 303 385T338 280T410 203T524 171Q609 169 678 206T805 304L921 181Q875 112 808 67T662 1T502 -20Z" />
<glyph unicode="f" horiz-adv-x="702" d="M334 0H98L300 1186Q314 1300 368 1384T510 1515T716 1560Q752 1559 788 1554T859 1541L836 1353Q814 1358 792 1361T746 1365Q689 1365 646 1343T575 1282T538 1186L334 0ZM738 1082L706 906H94L126 1082H738Z" />
<glyph unicode="g" horiz-adv-x="1126" d="M874 1082H1090L911 31Q891 -112 818 -216T628 -375T368 -427Q296 -426 226 -405T96 -343T-7 -244L116 -104Q162 -166 224 -202T363 -240Q447 -242 512 -210T618 -117T673 25L813 849L874 1082ZM67 521L70 543Q82 643
118 743T214 926T362 1057T567 1103Q673 1100 741 1051T847 924T898 754T906 572L898 504Q882 411 844 317T746 146T602 22T410 -21Q303 -18 232 32T122 163T71 337T67 521ZM306 543L304 522Q298 469 300 410T319 298T375 211T481 174Q562 170 624 208T728 309T787
445L815 628Q819 679 809 728T775 818T710 882T613 908Q538 911 484 878T393 790T335 670T306 543Z" />
<glyph unicode="h" horiz-adv-x="1104" d="M515 1536L248 0H13L280 1536H515ZM311 581H237Q250 675 284 768T378 938T520 1060T712 1102Q801 1100 860 1067T954 978T999 849T1001 695L885 0H648L766 698Q772 757 762 804T718 879T619 909Q549 911 496 883T405
807T344 700T311 581Z" />
<glyph unicode="i" horiz-adv-x="506" d="M455 1082L267 0H32L220 1082H455ZM253 1362Q252 1420 291 1457T387 1495Q442 1496 481 1462T521 1370Q522 1312 483 1276T387 1239Q332 1238 293 1271T253 1362Z" />
<glyph unicode="j" horiz-adv-x="498" d="M215 1082H452L252 -94Q239 -198 194 -276T71 -398T-116 -440Q-151 -439 -185 -434T-254 -421L-233 -233Q-211 -237 -190 -241T-146 -245Q-99 -245 -66 -226T-13 -173T14 -94L215 1082ZM245 1362Q244 1420 283 1457T378
1495Q434 1496 473 1462T513 1370Q513 1312 474 1276T379 1239Q324 1238 285 1271T245 1362Z" />
<glyph unicode="k" horiz-adv-x="1036" d="M520 1536L253 0H17L284 1536H520ZM1102 1082L559 564L252 291L224 511L448 745L800 1082H1102ZM679 0L421 518L589 678L938 0H679Z" />
<glyph unicode="l" horiz-adv-x="506" d="M534 1536L267 0H32L298 1536H534Z" />
<glyph unicode="m" horiz-adv-x="1731" d="M398 848L251 0H15L203 1082H425L398 848ZM317 581H239Q251 680 285 774T379 944T523 1062T720 1102Q803 1100 859 1069T950 985T995 865T999 721L879 0H643L761 701Q768 759 757 805T712 880T613 910Q542 912 490 884T404
808T348 701T317 581ZM979 645L865 620Q876 714 911 801T1006 957T1148 1065T1334 1103Q1422 1101 1482 1069T1576 980T1622 853T1624 700L1507 0H1271L1389 702Q1396 761 1386 807T1341 881T1242 909Q1184 911 1139 890T1061 831T1008 745T979 645Z" />
<glyph unicode="n" horiz-adv-x="1106" d="M394 837L249 0H13L201 1082H422L394 837ZM311 581L239 580Q251 677 286 771T381 941T524 1061T720 1102Q808 1100 866 1067T957 978T1000 850T1001 699L885 0H648L766 702Q772 760 762 806T718 880T620 909Q550 911
497 883T406 807T345 699T311 581Z" />
<glyph unicode="o" horiz-adv-x="1127" d="M65 523L68 546Q80 658 123 759T237 938T406 1061T624 1102Q740 1100 823 1054T959 932T1033 758T1044 554L1042 531Q1029 419 986 319T871 142T702 21T485 -20Q370 -18 287 27T151 149T77 321T65 523ZM302 546L300 523Q295
468 299 407T323 293T385 206T497 170Q571 168 626 200T718 286T777 404T806 531L808 554Q814 608 810 669T786 785T724 874T612 911Q537 913 482 881T390 793T332 673T302 546Z" />
<glyph unicode="p" horiz-adv-x="1117" d="M402 860L180 -416H-56L204 1082H421L402 860ZM1030 557L1028 536Q1016 438 982 339T889 157T745 25T545 -21Q444 -19 375 27T265 149T208 313T195 491L205 571Q221 666 259 761T359 934T504 1059T697 1102Q808 1099
878 1049T984 919T1030 744T1030 557ZM792 537L795 559Q800 610 799 670T781 783T727 872T620 909Q558 912 508 890T420 827T357 736T320 630L289 434Q286 368 307 309T375 211T494 171Q568 169 621 202T709 290T764 411T792 537Z" />
<glyph unicode="q" horiz-adv-x="1124" d="M583 -416L808 881L867 1082H1080L819 -416H583ZM65 523L68 544Q80 644 114 744T208 927T355 1057T559 1103Q663 1100 731 1051T838 923T892 753T902 573L894 505Q877 411 839 317T739 146T594 22T403 -21Q294 -17 224
33T116 164T67 338T65 523ZM305 544L302 523Q296 472 297 412T315 298T368 209T474 170Q555 167 617 206T720 309T779 446L807 629Q810 680 800 729T766 819T702 884T605 911Q530 913 477 880T389 792T333 671T305 544Z" />
<glyph unicode="r" horiz-adv-x="702" d="M402 864L252 0H17L205 1082H428L402 864ZM754 1091L728 866Q705 870 682 873T635 876Q574 877 525 859T439 808T377 728T338 624L282 620Q292 699 316 784T385 942T497 1061T662 1105Q685 1105 708 1101T754 1091Z" />
<glyph unicode="s" horiz-adv-x="1023" d="M663 299Q671 354 639 384T559 431T471 457Q410 472 350 495T239 555T160 643T134 769Q138 853 178 916T281 1021T421 1083T572 1102Q677 1100 765 1061T907 946T960 758L726 759Q728 809 709 845T652 902T563 923Q518
924 475 908T400 860T362 779Q356 741 373 717T420 677T483 653T544 637Q629 614 711 579T845 480T892 313Q889 225 846 162T736 58T590 -2T433 -20Q327 -18 234 24T84 145T27 340L254 339Q254 281 277 241T343 181T443 159Q490 159 537 172T619 217T663 299Z"
/>
<glyph unicode="t" horiz-adv-x="662" d="M686 1082L655 906H63L93 1082H686ZM310 1347H545L366 297Q362 262 366 236T389 196T447 180Q468 179 489 182T533 188L516 2Q480 -9 443 -14T367 -18Q277 -17 222 23T145 132T131 284L310 1347Z" />
<glyph unicode="u" horiz-adv-x="1105" d="M694 267L835 1082H1071L883 0H661L694 267ZM760 480L838 483Q826 385 794 294T707 130T570 17T377 -21Q288 -18 228 14T132 103T86 231T82 383L199 1082H434L316 380Q313 341 316 305T333 240T374 194T447 174Q543 171
607 211T709 323T760 480Z" />
<glyph unicode="v" horiz-adv-x="986" d="M398 201L790 1082H1042L507 0H350L398 201ZM337 1082L461 176L445 0H298L100 1082H337Z" />
<glyph unicode="w" horiz-adv-x="1474" d="M344 251L727 1082H885L795 819L413 0H272L344 251ZM345 1082L388 222L364 0H217L121 1082H345ZM965 258L1288 1082H1524L1053 0H897L965 258ZM904 1082L1000 236L987 0H858L753 843L756 1082H904Z" />
<glyph unicode="x" horiz-adv-x="1000" d="M369 1082L511 725L771 1082H1042L633 539L872 0H627L472 373L201 0H-70L354 562L124 1082H369Z" />
<glyph unicode="y" horiz-adv-x="973" d="M343 130L789 1082H1049L415 -166Q388 -222 354 -272T275 -360T177 -419T54 -441Q23 -440 -7 -435T-68 -422L-51 -237Q-40 -238 -29 -239T-7 -241Q50 -243 93 -227T168 -176T226 -93L343 130ZM345 1082L455 260L453 14L289
-28L99 1082H345Z" />
<glyph unicode="z" horiz-adv-x="1000" d="M863 192L829 0H46L80 192H863ZM968 921L135 0H-26L3 166L831 1082H996L968 921ZM906 1082L872 890H140L174 1082H906Z" />
<glyph unicode="{" horiz-adv-x="662" d="M735 1599L771 1460Q661 1420 610 1331T543 1132L515 926Q500 799 436 721T273 605T54 564L65 703Q168 706 223 767T294 926L322 1132Q338 1256 390 1348T529 1502T735 1599ZM507 -226L456 -363Q348 -327 279 -261T182
-102T165 102L193 307Q200 368 190 416T146 493T45 528L56 667Q165 663 249 622T378 501T412 306L385 101Q377 36 380 -28T411 -145T507 -226Z" />
<glyph unicode="|" horiz-adv-x="493" d="M461 1456L191 -270H33L303 1456H461Z" />
<glyph unicode="}" horiz-adv-x="662" d="M160 1461L213 1596Q320 1561 388 1494T486 1335T502 1132L475 925Q467 864 477 817T521 740T622 706L612 573Q505 577 420 617T290 734T256 926L283 1133Q291 1198 288 1262T256 1379T160 1461ZM-68 -366L-104 -226Q-31
-199 16 -150T88 -36T125 102L152 306Q168 434 232 511T395 624T613 663L602 531Q499 527 444 466T373 306L345 102Q329 -23 277 -115T139 -269T-68 -366Z" />
<glyph unicode="~" horiz-adv-x="1316" d="M1048 785L1223 787Q1217 713 1192 642T1124 512T1016 421T869 388Q787 390 723 429T602 525Q570 559 533 588T446 618Q392 618 357 590T302 517T275 427L92 426Q98 500 123 570T192 696T300 785T447 817Q529 815 594
776T714 679Q746 646 783 617T871 586Q926 586 962 616T1019 692T1048 785Z" />
<glyph unicode="&#xa0;" horiz-adv-x="504" />
<glyph unicode="&#xa1;" horiz-adv-x="527" d="M-26 -365L176 662H377L224 -365H-26ZM462 977Q462 919 424 881T328 843Q272 842 233 877T193 969Q193 1027 232 1064T329 1102Q384 1103 422 1069T462 977Z" />
<glyph unicode="&#xa2;" horiz-adv-x="1119" d="M791 1318L739 1029H552L604 1318H791ZM570 43L519 -245H332L383 43H570ZM497 171Q557 169 606 192T688 259T735 358L958 359Q944 242 875 156T704 24T488 -21Q372 -18 292 27T163 148T96 320T88 520L92 556Q105
668 148 767T261 943T428 1062T643 1102Q763 1099 849 1046T980 902T1024 694H802Q803 751 785 799T729 879T627 911Q553 914 500 883T411 799T355 682T326 556L323 521Q316 469 317 409T334 295T388 207T497 171Z" />
<glyph unicode="&#xa3;" horiz-adv-x="1169" d="M1008 0H-9L26 199H1043L1008 0ZM796 600H92L126 795H831L796 600ZM554 1040L478 421Q467 325 422 251T294 127L112 199Q151 215 174 250T209 329T226 411L311 1039Q327 1170 393 1269T566 1424T806 1476Q928 1473
1013 1423T1142 1282T1182 1072L945 1073Q948 1129 934 1175T883 1249T785 1279Q717 1280 669 1246T592 1156T554 1040Z" />
<glyph unicode="&#xa4;" horiz-adv-x="1395" d="M298 599Q287 520 303 443T359 302T465 201T617 160Q712 157 795 194T943 296T1050 445T1105 617Q1116 696 1101 773T1044 912T939 1013T787 1055Q692 1058 609 1021T461 919T353 771T298 599ZM124 600Q138 726
194 841T341 1045T546 1186T793 1235Q918 1232 1014 1180T1173 1039T1264 842T1279 616Q1266 490 1210 375T1063 169T858 28T611 -21Q486 -18 390 35T231 176T140 374T124 600ZM1407 1115L1186 919L1070 1069L1292 1265L1407 1115ZM342 170L121 -26L6 123L227 318L342
170ZM1087 -27L918 189L1063 318L1233 102L1087 -27ZM350 919L181 1136L325 1264L494 1048L350 919Z" />
<glyph unicode="&#xa5;" horiz-adv-x="1055" d="M967 739L941 590H97L123 739H967ZM917 448L891 300H46L73 448H917ZM483 696L927 1456H1198L639 580H496L483 696ZM415 1457L610 674L564 581L421 580L167 1456L415 1457ZM675 766L542 0H298L431 766H675Z" />
<glyph unicode="&#xa6;" horiz-adv-x="489" d="M201 -270H-18L120 523H339L201 -270ZM501 1456L369 698H149L281 1456H501Z" />
<glyph unicode="&#xa7;" horiz-adv-x="1235" d="M590 122L601 253Q662 255 719 275T817 339T868 448Q876 503 853 540T788 603T698 646T609 677Q531 703 457 736T326 817T238 931T214 1095Q220 1198 270 1271T399 1390T569 1457T751 1477Q885 1475 986 1426T1141
1281T1189 1047H955Q959 1118 935 1170T862 1253T740 1284Q678 1285 615 1268T506 1210T449 1098Q440 1042 462 1006T524 946T612 908T703 879Q782 854 856 822T989 742T1080 628T1105 464Q1099 363 1050 297T926 194T762 140T590 122ZM581 877L570 744Q508 741
456 721T368 658T322 551Q314 493 335 455T396 393T483 352T576 322Q655 295 729 263T861 183T949 69T974 -96Q967 -201 918 -273T791 -390T622 -455T439 -475Q338 -473 252 -447T101 -368T2 -237T-29 -49L209 -48Q205 -107 221 -150T269 -222T347 -266T449 -281Q510
-282 573 -265T682 -208T739 -99Q748 -45 724 -9T658 51T569 91T483 120Q405 145 331 178T199 258T108 372T82 536Q88 633 135 698T255 803T413 858T581 877Z" />
<glyph unicode="&#xa8;" horiz-adv-x="887" d="M215 1366Q215 1417 250 1451T336 1486Q386 1487 422 1455T459 1372Q459 1321 424 1288T338 1253Q289 1252 253 1284T215 1366ZM665 1365Q664 1416 699 1450T785 1485Q835 1486 871 1454T908 1370Q909 1319 873 1286T787
1252Q738 1251 702 1282T665 1365Z" />
<glyph unicode="&#xa9;" horiz-adv-x="1561" d="M937 597L1081 598Q1069 448 977 364T733 283Q625 286 558 341T461 484T439 670L451 787Q462 891 509 980T638 1123T832 1175Q977 1172 1055 1088T1128 859L982 860Q987 944 954 993T831 1045Q758 1046 710 1009T634
912T597 788L584 669Q578 613 587 555T630 457T733 414Q826 410 874 460T937 597ZM223 722Q207 607 231 497T315 299T469 157T688 101Q820 98 935 149T1142 290T1292 496T1368 736Q1383 851 1360 960T1276 1157T1122 1299T904 1355Q772 1358 656 1307T449 1167T299
962T223 722ZM107 722Q123 871 190 1007T363 1250T606 1418T899 1476Q1048 1474 1163 1411T1356 1243T1466 1006T1485 735Q1468 587 1402 450T1229 206T986 38T693 -21Q544 -19 429 44T236 214T126 451T107 722Z" />
<glyph unicode="&#xaa;" horiz-adv-x="885" d="M618 862L671 1204Q674 1239 668 1267T642 1314T583 1333Q527 1335 486 1310T429 1231L267 1243Q274 1326 321 1378T437 1455T583 1478Q666 1477 724 1442T810 1345T833 1201L784 887Q777 840 776 795T782 704H623Q609
784 618 862ZM707 1149L687 1036H557Q518 1035 475 1024T399 987T360 914Q352 867 382 848T455 828Q493 828 534 843T608 886T657 949L663 834Q640 788 602 756T517 707T418 690Q318 691 255 749T193 910Q195 1007 251 1059T388 1130T549 1150L707 1149Z" />
<glyph unicode="&#xab;" horiz-adv-x="975" d="M845 1190L532 789L333 786V804L669 1191L845 1190ZM521 797L695 394L547 393L326 781V799L521 797ZM940 934L627 533L428 530V548L764 935L940 934ZM616 541L790 138L642 137L421 525V543L616 541Z" />
<glyph unicode="&#xac;" horiz-adv-x="1097" d="M966 802L938 637H128L158 802H966ZM953 727L892 375H706L768 727H953Z" />
<glyph unicode="&#xad;" horiz-adv-x="675" d="M613 718L579 526H64L97 718H613Z" />
<glyph unicode="&#xae;" horiz-adv-x="1562" d="M821 654H598L616 784L792 783Q833 785 874 798T945 838T984 910Q993 961 975 987T923 1024T843 1036H702L590 317H448L581 1165L838 1164Q916 1162 982 1136T1088 1055T1124 914Q1122 839 1086 801T997 740T891
688Q887 686 884 682T876 674Q866 667 858 663T841 657T821 654ZM799 653L822 752Q935 749 998 691T1054 515L1048 460Q1045 427 1046 397T1050 333L1049 315L907 316Q902 352 904 388T910 462L917 515Q923 587 896 617T799 653ZM222 722Q207 607 231 497T315 299T469
157T688 100Q819 98 935 149T1142 290T1292 496T1367 736Q1382 851 1359 960T1275 1158T1122 1299T903 1355Q771 1358 655 1307T448 1167T298 962T222 722ZM106 722Q123 871 189 1007T362 1250T605 1418T898 1476Q1047 1474 1162 1411T1355 1243T1465 1006T1484
735Q1468 587 1402 450T1228 206T985 38T693 -22Q543 -19 428 44T235 213T125 451T106 722Z" />
<glyph unicode="&#xaf;" horiz-adv-x="956" d="M945 1450L921 1296H260L285 1450H945Z" />
<glyph unicode="&#xb0;" horiz-adv-x="760" d="M232 1200Q233 1273 271 1337T372 1440T509 1478Q578 1477 630 1440T712 1343T740 1218Q737 1145 701 1082T603 981T467 944Q397 945 344 980T260 1074T232 1200ZM363 1202Q357 1154 385 1118T464 1081Q520 1081
560 1122T608 1216Q614 1263 588 1301T511 1340Q455 1340 412 1298T363 1202Z" />
<glyph unicode="&#xb1;" horiz-adv-x="1065" d="M1026 899L995 703H104L136 899H1026ZM751 1277L600 313H391L542 1277H751ZM883 194L852 1H25L56 194H883Z" />
<glyph unicode="&#xb2;" horiz-adv-x="744" d="M705 812L679 667H87L110 799L422 1056Q448 1078 479 1106T533 1166T564 1235Q570 1276 548 1300T484 1326Q426 1326 392 1290T345 1201L165 1199Q173 1283 216 1344T327 1437T479 1469Q552 1468 614 1443T713 1366T747
1234Q744 1164 706 1110T615 1011T510 930L351 813L705 812Z" />
<glyph unicode="&#xb3;" horiz-adv-x="744" d="M353 1131H426Q460 1133 492 1143T548 1177T578 1238Q584 1282 555 1302T486 1323Q443 1323 410 1304T362 1245H180Q187 1322 230 1372T340 1446T479 1469Q547 1468 612 1446T719 1375T759 1249Q757 1174 711 1130T597
1067T467 1047H339L353 1131ZM331 1007L346 1089L444 1088Q509 1086 570 1070T672 1013T710 895Q709 809 658 756T532 679T382 656Q306 657 243 684T142 764T104 898H278Q279 848 311 826T392 803Q441 803 486 829T539 909Q545 946 531 966T489 996T430 1006L331
1007Z" />
<glyph unicode="&#xb4;" horiz-adv-x="641" d="M199 1235L436 1536H717L405 1235H199Z" />
<glyph unicode="&#xb5;" horiz-adv-x="1181" d="M877 1082H1113L925 0H709L735 264L877 1082ZM805 506L889 508Q879 420 855 326T786 153T666 24T484 -22Q421 -20 362 4T261 74T208 187L222 461H351Q347 414 347 364T360 271T405 201T496 171Q574 169 629 195T719
268T775 376T805 506ZM226 1082H461L200 -416H-34L226 1082Z" />
<glyph unicode="&#xb6;" horiz-adv-x="972" d="M724 0H526L617 520L549 521Q414 524 318 582T174 743T139 980Q153 1128 227 1234T420 1399T683 1457L976 1456L724 0Z" />
<glyph unicode="&#xb7;" horiz-adv-x="563" d="M160 709Q160 768 199 807T297 847Q355 848 394 812T434 717Q434 658 394 620T296 581Q239 580 199 615T160 709Z" />
<glyph unicode="&#xb8;" horiz-adv-x="515" d="M25 3L197 4L177 -56Q239 -69 271 -112T302 -218Q301 -288 267 -333T180 -403T66 -438T-51 -451L-44 -313Q-12 -311 21 -302T78 -273T109 -215Q115 -178 93 -163T38 -143T-19 -135L25 3Z" />
<glyph unicode="&#xb9;" horiz-adv-x="744" d="M640 1455L509 667H332L432 1239L228 1190L255 1341L617 1455H640Z" />
<glyph unicode="&#xba;" horiz-adv-x="907" d="M197 1043L204 1122Q214 1222 263 1304T393 1433T580 1478Q680 1475 748 1427T848 1299T872 1123L865 1043Q854 943 806 862T677 735T491 690Q391 693 323 741T222 868T197 1043ZM371 1123L362 1041Q357 991 366
944T406 864T497 831Q558 829 600 859T668 939T701 1043L710 1124Q715 1173 705 1221T665 1300T576 1334Q514 1336 471 1306T403 1227T371 1123Z" />
<glyph unicode="&#xbb;" horiz-adv-x="974" d="M5 140L318 541L517 544L518 526L181 139L5 140ZM156 936H303L524 549V531L330 533L156 936ZM366 140L679 541L878 544L879 526L542 139L366 140ZM517 936H664L885 549V531L691 533L517 936Z" />
<glyph unicode="&#xbc;" horiz-adv-x="1448" d="M605 1452L475 664H298L397 1236L193 1187L220 1338L583 1452H605ZM1243 1248L363 120L245 198L1125 1325L1243 1248ZM1314 313L1288 165H668L680 295L1114 789H1270L1069 532L863 314L1314 313ZM1301 789L1164
0H986L1124 789H1301Z" />
<glyph unicode="&#xbd;" horiz-adv-x="1533" d="M1201 1248L321 120L203 198L1083 1325L1201 1248ZM593 1455L463 667H286L385 1239L181 1190L208 1341L571 1455H593ZM1355 145L1329 0H737L760 132L1072 389Q1098 411 1129 439T1183 499T1214 568Q1220 609 1198
633T1134 659Q1076 659 1042 623T995 534L815 532Q822 616 865 677T977 770T1129 802Q1201 801 1263 776T1363 699T1397 567Q1394 497 1356 443T1264 344T1159 263L1001 146L1355 145Z" />
<glyph unicode="&#xbe;" horiz-adv-x="1589" d="M1385 1248L505 120L387 198L1267 1325L1385 1248ZM1441 313L1415 165H795L807 295L1241 789H1397L1196 532L990 314L1441 313ZM1428 789L1291 0H1113L1251 789H1428ZM399 1131H472Q506 1133 538 1143T594 1177T623
1238Q630 1282 601 1302T531 1323Q489 1323 456 1304T407 1245H225Q232 1322 276 1372T386 1446T524 1469Q593 1468 657 1446T764 1375T805 1249Q803 1174 757 1130T643 1067T513 1047H384L399 1131ZM377 1007L392 1089L490 1088Q555 1086 616 1070T717 1013T756
895Q754 809 703 756T577 679T427 656Q352 657 289 684T188 764T150 898H323Q324 848 356 826T438 803Q487 803 531 829T585 909Q591 946 577 966T535 996T476 1006L377 1007Z" />
<glyph unicode="&#xbf;" horiz-adv-x="967" d="M400 662L613 663Q606 581 583 516T520 394T417 283Q371 243 326 201T248 109T206 -6Q199 -58 211 -99T257 -164T346 -190Q406 -192 451 -167T524 -99T564 0L799 2Q787 -123 723 -210T557 -343T334 -386Q220 -384
133 -340T1 -212T-35 -9Q-28 87 19 163T133 302T269 421Q309 454 335 490T377 569T400 662ZM701 978Q701 920 663 882T567 844Q511 843 472 878T432 970Q432 1028 471 1065T567 1103Q623 1104 662 1069T701 978Z" />
<glyph unicode="&#xc0;" horiz-adv-x="1317" d="M808 1249L173 0H-93L691 1456H862L808 1249ZM946 0L740 1276L755 1456H914L1195 0H946ZM1017 540L982 341H212L247 540H1017ZM799 1847L941 1546H761L547 1846L799 1847Z" />
<glyph unicode="&#xc1;" horiz-adv-x="1317" d="M808 1249L173 0H-93L691 1456H862L808 1249ZM946 0L740 1276L755 1456H914L1195 0H946ZM1017 540L982 341H212L247 540H1017ZM701 1546L938 1847H1219L907 1546H701Z" />
<glyph unicode="&#xc2;" horiz-adv-x="1317" d="M808 1249L173 0H-93L691 1456H862L808 1249ZM946 0L740 1276L755 1456H914L1195 0H946ZM1017 540L982 341H212L247 540H1017ZM934 1847L1170 1574V1557L985 1560L865 1716L689 1561L497 1558L496 1576L799 1847H934Z" />
<glyph unicode="&#xc3;" horiz-adv-x="1317" d="M808 1249L173 0H-93L691 1456H862L808 1249ZM946 0L740 1276L755 1456H914L1195 0H946ZM1017 540L982 341H212L247 540H1017ZM1079 1834L1221 1824Q1216 1759 1189 1700T1111 1603T989 1566Q951 1567 919 1582T857
1616T796 1649T730 1662Q683 1660 659 1629T623 1558L477 1565Q483 1629 511 1689T589 1787T712 1824Q748 1823 779 1809T841 1775T902 1742T971 1729Q1017 1730 1042 1761T1079 1834Z" />
<glyph unicode="&#xc4;" horiz-adv-x="1317" d="M808 1249L173 0H-93L691 1456H862L808 1249ZM946 0L740 1276L755 1456H914L1195 0H946ZM1017 540L982 341H212L247 540H1017ZM501 1677Q501 1728 536 1762T622 1797Q672 1798 708 1766T745 1683Q745 1632 710 1599T624
1564Q575 1563 539 1595T501 1677ZM951 1676Q950 1727 985 1761T1071 1796Q1121 1797 1157 1765T1194 1681Q1195 1630 1159 1597T1073 1563Q1024 1562 988 1593T951 1676Z" />
<glyph unicode="&#xc5;" horiz-adv-x="1317" d="M808 1249L173 0H-93L691 1456H862L808 1249ZM946 0L740 1276L755 1456H914L1195 0H946ZM1017 540L982 341H212L247 540H1017ZM647 1723Q647 1783 677 1832T758 1909T868 1938Q952 1938 1011 1881T1071 1738Q1071
1678 1040 1630T959 1555T849 1528Q766 1528 707 1583T647 1723ZM751 1725Q746 1683 770 1652T838 1620Q886 1620 923 1655T966 1737Q972 1779 948 1811T879 1844Q831 1844 794 1808T751 1725Z" />
<glyph unicode="&#xc6;" horiz-adv-x="1861" d="M1075 1291L178 0H-115L941 1456H1096L1075 1291ZM1065 554L1028 344H302L339 554H1065ZM1744 193L1710 0H998L1032 193H1744ZM1275 1456L1082 0H847L1041 1456H1275ZM1720 849L1686 656H1073L1107 849H1720ZM1903
1456L1869 1263H1158L1192 1456H1903Z" />
<glyph unicode="&#xc7;" horiz-adv-x="1297" d="M950 473L1190 476Q1166 320 1080 208T863 36T577 -20Q434 -17 337 43T185 201T113 421T112 667L129 788Q149 922 202 1047T340 1270T544 1423T811 1476Q964 1473 1068 1410T1229 1234T1290 974L1047 975Q1047 1061
1024 1128T946 1234T798 1276Q696 1279 622 1237T498 1123T418 964T376 790L358 666Q348 594 348 511T368 354T441 232T590 180Q690 176 761 211T879 313T950 473ZM469 -3L641 -2L621 -62Q683 -75 715 -118T746 -224Q745 -294 711 -339T624 -409T510 -444T393 -457L400
-319Q432 -317 465 -308T522 -279T553 -221Q559 -184 537 -169T482 -149T425 -141L469 -3Z" />
<glyph unicode="&#xc8;" horiz-adv-x="1123" d="M1000 199L965 0H214L248 199H1000ZM537 1456L284 0H38L291 1456H537ZM1014 848L980 652H326L361 848H1014ZM1212 1456L1177 1256H431L467 1456H1212ZM748 1854L890 1553H710L496 1853L748 1854Z" />
<glyph unicode="&#xc9;" horiz-adv-x="1123" d="M1000 199L965 0H214L248 199H1000ZM537 1456L284 0H38L291 1456H537ZM1014 848L980 652H326L361 848H1014ZM1212 1456L1177 1256H431L467 1456H1212ZM650 1553L887 1854H1168L856 1553H650Z" />
<glyph unicode="&#xca;" horiz-adv-x="1123" d="M1000 199L965 0H214L248 199H1000ZM537 1456L284 0H38L291 1456H537ZM1014 848L980 652H326L361 848H1014ZM1212 1456L1177 1256H431L467 1456H1212ZM883 1854L1119 1581V1564L934 1567L814 1723L638 1568L446
1565L445 1583L748 1854H883Z" />
<glyph unicode="&#xcb;" horiz-adv-x="1123" d="M1000 199L965 0H214L248 199H1000ZM537 1456L284 0H38L291 1456H537ZM1014 848L980 652H326L361 848H1014ZM1212 1456L1177 1256H431L467 1456H1212ZM450 1684Q450 1735 485 1769T571 1804Q621 1805 657 1773T694
1690Q694 1639 659 1606T573 1571Q524 1570 488 1602T450 1684ZM900 1683Q899 1734 934 1768T1020 1803Q1070 1804 1106 1772T1143 1688Q1144 1637 1108 1604T1022 1570Q973 1569 937 1600T900 1683Z" />
<glyph unicode="&#xcc;" horiz-adv-x="562" d="M553 1456L300 0H55L308 1456H553ZM420 1854L562 1553H382L168 1853L420 1854Z" />
<glyph unicode="&#xcd;" horiz-adv-x="562" d="M553 1456L300 0H55L308 1456H553ZM322 1553L559 1854H840L528 1553H322Z" />
<glyph unicode="&#xce;" horiz-adv-x="562" d="M553 1456L300 0H55L308 1456H553ZM555 1854L791 1581V1564L606 1567L486 1723L310 1568L118 1565L117 1583L420 1854H555Z" />
<glyph unicode="&#xcf;" horiz-adv-x="562" d="M553 1456L300 0H55L308 1456H553ZM122 1684Q122 1735 157 1769T243 1804Q293 1805 329 1773T366 1690Q366 1639 331 1606T245 1571Q196 1570 160 1602T122 1684ZM572 1683Q571 1734 606 1768T692 1803Q742 1804
778 1772T815 1688Q816 1637 780 1604T694 1570Q645 1569 609 1600T572 1683Z" />
<glyph unicode="&#xd0;" horiz-adv-x="1327" d="M494 0H177L214 199L501 197Q648 197 751 264T916 443T999 690L1009 770Q1020 855 1015 939T978 1094T885 1208T720 1255L389 1256L424 1456L727 1455Q873 1452 979 1396T1153 1244T1245 1025T1255 767L1245 689Q1224
542 1162 416T1002 196T776 52T494 0ZM567 1456L314 0H68L321 1456H567ZM715 820L685 654H32L61 820H715Z" />
<glyph unicode="&#xd1;" horiz-adv-x="1409" d="M1414 1456L1161 0H923L466 1053L284 0H38L291 1456H529L987 401L1170 1456H1414ZM1122 1834L1264 1824Q1259 1759 1232 1700T1154 1603T1032 1566Q994 1567 962 1582T900 1616T839 1649T773 1662Q726 1660 702
1629T666 1558L520 1565Q526 1629 554 1689T632 1787T755 1824Q791 1823 822 1809T884 1775T945 1742T1014 1729Q1060 1730 1085 1761T1122 1834Z" />
<glyph unicode="&#xd2;" horiz-adv-x="1369" d="M1298 770L1288 691Q1268 553 1215 425T1075 195T868 35T595 -20Q449 -17 349 45T193 209T117 435T114 688L125 767Q145 904 199 1032T340 1261T547 1421T819 1476Q966 1473 1065 1412T1221 1248T1296 1022T1298
770ZM1042 688L1053 771Q1062 846 1061 931T1037 1093T960 1219T805 1272Q702 1276 626 1232T497 1112T415 947T372 770L361 687Q351 613 352 527T377 364T455 237T608 183Q713 179 789 224T917 344T999 509T1042 688ZM823 1848L965 1547H785L571 1847L823 1848Z"
/>
<glyph unicode="&#xd3;" horiz-adv-x="1369" d="M1298 770L1288 691Q1268 553 1215 425T1075 195T868 35T595 -20Q449 -17 349 45T193 209T117 435T114 688L125 767Q145 904 199 1032T340 1261T547 1421T819 1476Q966 1473 1065 1412T1221 1248T1296 1022T1298
770ZM1042 688L1053 771Q1062 846 1061 931T1037 1093T960 1219T805 1272Q702 1276 626 1232T497 1112T415 947T372 770L361 687Q351 613 352 527T377 364T455 237T608 183Q713 179 789 224T917 344T999 509T1042 688ZM724 1547L961 1848H1242L930 1547H724Z" />
<glyph unicode="&#xd4;" horiz-adv-x="1369" d="M1298 770L1288 691Q1268 553 1215 425T1075 195T868 35T595 -20Q449 -17 349 45T193 209T117 435T114 688L125 767Q145 904 199 1032T340 1261T547 1421T819 1476Q966 1473 1065 1412T1221 1248T1296 1022T1298
770ZM1042 688L1053 771Q1062 846 1061 931T1037 1093T960 1219T805 1272Q702 1276 626 1232T497 1112T415 947T372 770L361 687Q351 613 352 527T377 364T455 237T608 183Q713 179 789 224T917 344T999 509T1042 688ZM958 1848L1194 1575V1558L1009 1561L889 1717L713
1562L521 1559L520 1577L823 1848H958Z" />
<glyph unicode="&#xd5;" horiz-adv-x="1369" d="M1298 770L1288 691Q1268 553 1215 425T1075 195T868 35T595 -20Q449 -17 349 45T193 209T117 435T114 688L125 767Q145 904 199 1032T340 1261T547 1421T819 1476Q966 1473 1065 1412T1221 1248T1296 1022T1298
770ZM1042 688L1053 771Q1062 846 1061 931T1037 1093T960 1219T805 1272Q702 1276 626 1232T497 1112T415 947T372 770L361 687Q351 613 352 527T377 364T455 237T608 183Q713 179 789 224T917 344T999 509T1042 688ZM1102 1836L1244 1826Q1239 1761 1212 1702T1134
1605T1012 1568Q974 1569 942 1584T880 1618T819 1651T753 1664Q706 1662 682 1631T646 1560L500 1567Q506 1631 534 1691T612 1789T735 1826Q771 1825 802 1811T864 1777T925 1744T994 1731Q1040 1732 1065 1763T1102 1836Z" />
<glyph unicode="&#xd6;" horiz-adv-x="1369" d="M1298 770L1288 691Q1268 553 1215 425T1075 195T868 35T595 -20Q449 -17 349 45T193 209T117 435T114 688L125 767Q145 904 199 1032T340 1261T547 1421T819 1476Q966 1473 1065 1412T1221 1248T1296 1022T1298
770ZM1042 688L1053 771Q1062 846 1061 931T1037 1093T960 1219T805 1272Q702 1276 626 1232T497 1112T415 947T372 770L361 687Q351 613 352 527T377 364T455 237T608 183Q713 179 789 224T917 344T999 509T1042 688ZM524 1678Q524 1729 559 1763T645 1798Q695
1799 731 1767T768 1684Q768 1633 733 1600T647 1565Q598 1564 562 1596T524 1678ZM974 1677Q973 1728 1008 1762T1094 1797Q1144 1798 1180 1766T1217 1682Q1218 1631 1182 1598T1096 1564Q1047 1563 1011 1594T974 1677Z" />
<glyph unicode="&#xd7;" horiz-adv-x="1057" d="M157 203L31 359L914 1143L1039 987L157 203ZM772 202L145 1008L302 1143L928 338L772 202Z" />
<glyph unicode="&#xd8;" horiz-adv-x="1367" d="M1424 1517L199 -94H22L1249 1517H1424ZM1302 770L1292 690Q1272 553 1219 425T1079 195T872 35T599 -20Q482 -18 395 23T248 134T157 293T115 484T118 688L129 768Q149 904 203 1032T344 1261T551 1421T823 1476Q940
1474 1027 1433T1173 1323T1265 1164T1306 973T1302 770ZM1046 688L1057 771Q1064 831 1065 899T1057 1032T1018 1150T939 1236T810 1273Q706 1276 630 1232T502 1112T419 947T376 770L365 687Q357 627 356 560T365 427T404 307T483 220T612 183Q717 179 793 224T920
344T1002 509T1046 688Z" />
<glyph unicode="&#xd9;" horiz-adv-x="1300" d="M1084 1456H1329L1163 485Q1140 328 1058 213T848 37T562 -21Q413 -18 304 44T142 219T106 483L272 1456H516L351 482Q341 398 360 331T432 222T576 179Q673 176 744 213T860 321T918 483L1084 1456ZM788 1847L930
1546H750L536 1846L788 1847Z" />
<glyph unicode="&#xda;" horiz-adv-x="1300" d="M1084 1456H1329L1163 485Q1140 328 1058 213T848 37T562 -21Q413 -18 304 44T142 219T106 483L272 1456H516L351 482Q341 398 360 331T432 222T576 179Q673 176 744 213T860 321T918 483L1084 1456ZM689 1546L926
1847H1207L895 1546H689Z" />
<glyph unicode="&#xdb;" horiz-adv-x="1300" d="M1084 1456H1329L1163 485Q1140 328 1058 213T848 37T562 -21Q413 -18 304 44T142 219T106 483L272 1456H516L351 482Q341 398 360 331T432 222T576 179Q673 176 744 213T860 321T918 483L1084 1456ZM922 1847L1158
1574V1557L973 1560L853 1716L677 1561L485 1558L484 1576L787 1847H922Z" />
<glyph unicode="&#xdc;" horiz-adv-x="1300" d="M1084 1456H1329L1163 485Q1140 328 1058 213T848 37T562 -21Q413 -18 304 44T142 219T106 483L272 1456H516L351 482Q341 398 360 331T432 222T576 179Q673 176 744 213T860 321T918 483L1084 1456ZM489 1677Q489
1728 524 1762T610 1797Q660 1798 696 1766T733 1683Q733 1632 698 1599T612 1564Q563 1563 527 1595T489 1677ZM939 1676Q938 1727 973 1761T1059 1796Q1109 1797 1145 1765T1182 1681Q1183 1630 1147 1597T1061 1563Q1012 1562 976 1593T939 1676Z" />
<glyph unicode="&#xdd;" horiz-adv-x="1213" d="M422 1456L628 763L1076 1456H1360L716 524L625 0H378L474 549L161 1456H422ZM648 1545L885 1846H1166L854 1545H648Z" />
<glyph unicode="&#xde;" horiz-adv-x="1194" d="M292 1456H528L275 0H39L292 1456ZM343 1175H705Q834 1172 937 1122T1096 978T1142 746Q1130 596 1049 497T845 349T582 300L286 301L319 492L588 491Q667 491 735 520T849 605T907 744Q916 816 894 869T822 951T700
984L452 985L343 1175Z" />
<glyph unicode="&#xdf;" horiz-adv-x="1221" d="M451 1106L264 0H29L218 1107Q231 1206 269 1289T369 1434T515 1527T704 1557Q807 1555 887 1514T1012 1397T1048 1212Q1042 1153 1019 1104T967 1011T912 919T878 817Q869 765 889 720T945 632T1018 546T1079 453T1101
345Q1094 222 1031 140T867 17T651 -22Q604 -21 556 -15T460 6T371 43L436 235Q482 205 537 188T648 170Q701 170 748 188T828 244T869 337Q877 391 855 436T797 523T723 607T661 699T641 811Q646 866 669 913T723 1005T779 1096T812 1199Q818 1245 805 1283T761
1344T681 1369Q605 1372 558 1333T486 1232T451 1106Z" />
<glyph unicode="&#xe0;" horiz-adv-x="1071" d="M648 217L730 736Q736 788 723 830T676 896T585 922Q535 923 491 906T417 854T376 771L141 770Q147 855 191 918T304 1023T452 1084T608 1103Q718 1101 803 1056T932 929T966 731L887 249Q878 192 875 133T890 18L888
0L655 -1Q640 52 640 107T648 217ZM757 658L733 509L577 510Q529 510 479 501T384 470T310 411T273 317Q268 272 283 240T331 188T407 168Q466 167 523 191T623 259T682 362L745 254Q723 193 684 142T592 54T479 -3T352 -22Q262 -20 188 19T71 130T33 294Q38 399
86 469T211 581T379 641T559 659L757 658ZM631 1536L773 1235H593L379 1535L631 1536Z" />
<glyph unicode="&#xe1;" horiz-adv-x="1071" d="M648 217L730 736Q736 788 723 830T676 896T585 922Q535 923 491 906T417 854T376 771L141 770Q147 855 191 918T304 1023T452 1084T608 1103Q718 1101 803 1056T932 929T966 731L887 249Q878 192 875 133T890 18L888
0L655 -1Q640 52 640 107T648 217ZM757 658L733 509L577 510Q529 510 479 501T384 470T310 411T273 317Q268 272 283 240T331 188T407 168Q466 167 523 191T623 259T682 362L745 254Q723 193 684 142T592 54T479 -3T352 -22Q262 -20 188 19T71 130T33 294Q38 399
86 469T211 581T379 641T559 659L757 658ZM533 1235L770 1536H1051L739 1235H533Z" />
<glyph unicode="&#xe2;" horiz-adv-x="1071" d="M648 217L730 736Q736 788 723 830T676 896T585 922Q535 923 491 906T417 854T376 771L141 770Q147 855 191 918T304 1023T452 1084T608 1103Q718 1101 803 1056T932 929T966 731L887 249Q878 192 875 133T890 18L888
0L655 -1Q640 52 640 107T648 217ZM757 658L733 509L577 510Q529 510 479 501T384 470T310 411T273 317Q268 272 283 240T331 188T407 168Q466 167 523 191T623 259T682 362L745 254Q723 193 684 142T592 54T479 -3T352 -22Q262 -20 188 19T71 130T33 294Q38 399
86 469T211 581T379 641T559 659L757 658ZM767 1536L1003 1263V1246L818 1249L698 1405L522 1250L330 1247L329 1265L632 1536H767Z" />
<glyph unicode="&#xe3;" horiz-adv-x="1071" d="M648 217L730 736Q736 788 723 830T676 896T585 922Q535 923 491 906T417 854T376 771L141 770Q147 855 191 918T304 1023T452 1084T608 1103Q718 1101 803 1056T932 929T966 731L887 249Q878 192 875 133T890 18L888
0L655 -1Q640 52 640 107T648 217ZM757 658L733 509L577 510Q529 510 479 501T384 470T310 411T273 317Q268 272 283 240T331 188T407 168Q466 167 523 191T623 259T682 362L745 254Q723 193 684 142T592 54T479 -3T352 -22Q262 -20 188 19T71 130T33 294Q38 399
86 469T211 581T379 641T559 659L757 658ZM911 1524L1053 1514Q1048 1449 1021 1390T943 1293T821 1256Q783 1257 751 1272T689 1306T628 1339T562 1352Q515 1350 491 1319T455 1248L309 1255Q315 1319 343 1379T421 1477T544 1514Q580 1513 611 1499T673 1465T734
1432T803 1419Q849 1420 874 1451T911 1524Z" />
<glyph unicode="&#xe4;" horiz-adv-x="1071" d="M648 217L730 736Q736 788 723 830T676 896T585 922Q535 923 491 906T417 854T376 771L141 770Q147 855 191 918T304 1023T452 1084T608 1103Q718 1101 803 1056T932 929T966 731L887 249Q878 192 875 133T890 18L888
0L655 -1Q640 52 640 107T648 217ZM757 658L733 509L577 510Q529 510 479 501T384 470T310 411T273 317Q268 272 283 240T331 188T407 168Q466 167 523 191T623 259T682 362L745 254Q723 193 684 142T592 54T479 -3T352 -22Q262 -20 188 19T71 130T33 294Q38 399
86 469T211 581T379 641T559 659L757 658ZM334 1366Q334 1417 369 1451T455 1486Q505 1487 541 1455T578 1372Q578 1321 543 1288T457 1253Q408 1252 372 1284T334 1366ZM784 1365Q783 1416 818 1450T904 1485Q954 1486 990 1454T1027 1370Q1028 1319 992 1286T906
1252Q857 1251 821 1282T784 1365Z" />
<glyph unicode="&#xe5;" horiz-adv-x="1071" d="M648 217L730 736Q736 788 723 830T676 896T585 922Q535 923 491 906T417 854T376 771L141 770Q147 855 191 918T304 1023T452 1084T608 1103Q718 1101 803 1056T932 929T966 731L887 249Q878 192 875 133T890 18L888
0L655 -1Q640 52 640 107T648 217ZM757 658L733 509L577 510Q529 510 479 501T384 470T310 411T273 317Q268 272 283 240T331 188T407 168Q466 167 523 191T623 259T682 362L745 254Q723 193 684 142T592 54T479 -3T352 -22Q262 -20 188 19T71 130T33 294Q38 399
86 469T211 581T379 641T559 659L757 658ZM480 1412Q480 1472 510 1521T591 1598T701 1627Q785 1627 844 1570T904 1427Q904 1367 873 1319T792 1244T682 1217Q599 1217 540 1272T480 1412ZM584 1414Q579 1372 603 1341T671 1309Q719 1309 756 1344T799 1426Q805
1468 781 1500T712 1533Q664 1533 627 1497T584 1414Z" />
<glyph unicode="&#xe6;" horiz-adv-x="1678" d="M642 181L730 716Q735 767 725 810T682 881T592 911Q540 912 493 895T412 842T368 753L135 771Q142 859 186 922T299 1026T447 1085T607 1103Q724 1100 807 1051T930 916T958 711L876 216L642 181ZM765 643L737
479L524 480Q467 480 409 462T308 404T257 299Q250 251 269 220T324 174T404 159Q444 158 491 171T584 208T662 267T707 343L804 193Q761 116 686 68T523 -1T350 -21Q252 -19 175 19T56 129T19 304Q25 404 72 469T192 573T353 628T524 644L765 643ZM1126 -20Q1011
-18 928 23T792 137T718 304T706 505L713 563Q726 670 768 768T879 942T1042 1062T1253 1102Q1357 1100 1432 1060T1553 953T1615 798T1620 615L1599 475H805L834 642H1388L1394 673Q1403 733 1393 786T1345 874T1239 911Q1168 914 1115 884T1025 801T967 686T938
563L930 506Q924 443 930 385T961 279T1032 203T1151 172Q1236 170 1311 197T1459 264L1515 99Q1464 56 1399 30T1263 -9T1126 -20Z" />
<glyph unicode="&#xe7;" horiz-adv-x="1037" d="M480 171Q539 170 588 193T669 259T715 358L938 359Q925 243 857 157T687 25T472 -20Q357 -18 276 27T144 148T75 320T65 521L69 557Q81 668 122 767T233 942T398 1062T612 1102Q732 1100 819 1047T952 903T997
694L776 695Q776 751 758 799T700 878T597 911Q523 913 471 882T384 798T330 682T303 556L299 521Q294 468 295 408T314 294T370 207T480 171ZM346 -3L518 -2L498 -62Q560 -75 592 -118T623 -224Q622 -294 588 -339T501 -409T387 -444T270 -457L277 -319Q309 -317
342 -308T399 -279T430 -221Q436 -184 414 -169T359 -149T302 -141L346 -3Z" />
<glyph unicode="&#xe8;" horiz-adv-x="1064" d="M502 -20Q391 -18 306 23T164 136T83 301T66 501L70 542Q81 651 123 752T235 933T402 1059T616 1102Q729 1100 807 1055T931 936T992 767T997 572L983 469H171L199 642L772 641L776 662Q785 725 770 781T713 873T603
911Q528 913 475 880T386 791T332 670T304 542L300 502Q294 443 303 385T338 280T410 203T524 171Q609 169 678 206T805 304L921 181Q875 112 808 67T662 1T502 -20ZM609 1536L751 1235H571L357 1535L609 1536Z" />
<glyph unicode="&#xe9;" horiz-adv-x="1064" d="M502 -20Q391 -18 306 23T164 136T83 301T66 501L70 542Q81 651 123 752T235 933T402 1059T616 1102Q729 1100 807 1055T931 936T992 767T997 572L983 469H171L199 642L772 641L776 662Q785 725 770 781T713 873T603
911Q528 913 475 880T386 791T332 670T304 542L300 502Q294 443 303 385T338 280T410 203T524 171Q609 169 678 206T805 304L921 181Q875 112 808 67T662 1T502 -20ZM511 1235L748 1536H1029L717 1235H511Z" />
<glyph unicode="&#xea;" horiz-adv-x="1064" d="M502 -20Q391 -18 306 23T164 136T83 301T66 501L70 542Q81 651 123 752T235 933T402 1059T616 1102Q729 1100 807 1055T931 936T992 767T997 572L983 469H171L199 642L772 641L776 662Q785 725 770 781T713 873T603
911Q528 913 475 880T386 791T332 670T304 542L300 502Q294 443 303 385T338 280T410 203T524 171Q609 169 678 206T805 304L921 181Q875 112 808 67T662 1T502 -20ZM744 1536L980 1263V1246L795 1249L675 1405L499 1250L307 1247L306 1265L609 1536H744Z" />
<glyph unicode="&#xeb;" horiz-adv-x="1064" d="M502 -20Q391 -18 306 23T164 136T83 301T66 501L70 542Q81 651 123 752T235 933T402 1059T616 1102Q729 1100 807 1055T931 936T992 767T997 572L983 469H171L199 642L772 641L776 662Q785 725 770 781T713 873T603
911Q528 913 475 880T386 791T332 670T304 542L300 502Q294 443 303 385T338 280T410 203T524 171Q609 169 678 206T805 304L921 181Q875 112 808 67T662 1T502 -20ZM311 1366Q311 1417 346 1451T432 1486Q482 1487 518 1455T555 1372Q555 1321 520 1288T434 1253Q385
1252 349 1284T311 1366ZM761 1365Q760 1416 795 1450T881 1485Q931 1486 967 1454T1004 1370Q1005 1319 969 1286T883 1252Q834 1251 798 1282T761 1365Z" />
<glyph unicode="&#xec;" horiz-adv-x="519" d="M458 1082L270 0H35L223 1082H458ZM598 1783L740 1482H560L346 1782L598 1783Z" />
<glyph unicode="&#xed;" horiz-adv-x="519" d="M458 1082L270 0H35L223 1082H458ZM244 1482L481 1783H762L450 1482H244Z" />
<glyph unicode="&#xee;" horiz-adv-x="519" d="M458 1082L270 0H35L223 1082H458ZM476 1527L712 1254V1237L527 1240L407 1396L231 1241L39 1238L38 1256L341 1527H476Z" />
<glyph unicode="&#xef;" horiz-adv-x="519" d="M458 1082L270 0H35L223 1082H458ZM44 1357Q44 1408 79 1442T165 1477Q215 1478 251 1446T288 1363Q288 1312 253 1279T167 1244Q118 1243 82 1275T44 1357ZM494 1356Q493 1407 528 1441T614 1476Q664 1477 700 1445T737
1361Q738 1310 702 1277T616 1243Q567 1242 531 1273T494 1356Z" />
<glyph unicode="&#xf0;" horiz-adv-x="1153" d="M378 1389L464 1581Q631 1539 754 1450T953 1236T1057 960T1065 641L1053 556Q1037 447 993 343T877 156T708 25T488 -21Q388 -18 309 20T175 124T96 276T79 459Q88 561 126 654T229 820T382 934T581 972Q685 968
765 918T891 784T937 599L850 601Q853 648 835 683T783 740T709 774T627 787Q555 789 500 763T407 689T345 583T315 459Q309 409 317 359T347 267T409 199T506 170Q580 168 634 202T724 293T783 415T814 542L828 644Q847 777 829 895T755 1112T605 1281T378 1389ZM1096
1397L509 1042L449 1159L1036 1513L1096 1397Z" />
<glyph unicode="&#xf1;" horiz-adv-x="1106" d="M394 837L249 0H13L201 1082H422L394 837ZM311 581L239 580Q251 677 286 771T381 941T524 1061T720 1102Q808 1100 866 1067T957 978T1000 850T1001 699L885 0H648L766 702Q772 760 762 806T718 880T620 909Q550
911 497 883T406 807T345 699T311 581ZM921 1524L1063 1514Q1058 1449 1031 1390T953 1293T831 1256Q793 1257 761 1272T699 1306T638 1339T572 1352Q525 1350 501 1319T465 1248L319 1255Q325 1319 353 1379T431 1477T554 1514Q590 1513 621 1499T683 1465T744
1432T813 1419Q859 1420 884 1451T921 1524Z" />
<glyph unicode="&#xf2;" horiz-adv-x="1127" d="M65 523L68 546Q80 658 123 759T237 938T406 1061T624 1102Q740 1100 823 1054T959 932T1033 758T1044 554L1042 531Q1029 419 986 319T871 142T702 21T485 -20Q370 -18 287 27T151 149T77 321T65 523ZM302 546L300
523Q295 468 299 407T323 293T385 206T497 170Q571 168 626 200T718 286T777 404T806 531L808 554Q814 608 810 669T786 785T724 874T612 911Q537 913 482 881T390 793T332 673T302 546ZM630 1536L772 1235H592L378 1535L630 1536Z" />
<glyph unicode="&#xf3;" horiz-adv-x="1127" d="M65 523L68 546Q80 658 123 759T237 938T406 1061T624 1102Q740 1100 823 1054T959 932T1033 758T1044 554L1042 531Q1029 419 986 319T871 142T702 21T485 -20Q370 -18 287 27T151 149T77 321T65 523ZM302 546L300
523Q295 468 299 407T323 293T385 206T497 170Q571 168 626 200T718 286T777 404T806 531L808 554Q814 608 810 669T786 785T724 874T612 911Q537 913 482 881T390 793T332 673T302 546ZM532 1235L769 1536H1050L738 1235H532Z" />
<glyph unicode="&#xf4;" horiz-adv-x="1127" d="M65 523L68 546Q80 658 123 759T237 938T406 1061T624 1102Q740 1100 823 1054T959 932T1033 758T1044 554L1042 531Q1029 419 986 319T871 142T702 21T485 -20Q370 -18 287 27T151 149T77 321T65 523ZM302 546L300
523Q295 468 299 407T323 293T385 206T497 170Q571 168 626 200T718 286T777 404T806 531L808 554Q814 608 810 669T786 785T724 874T612 911Q537 913 482 881T390 793T332 673T302 546ZM765 1536L1001 1263V1246L816 1249L696 1405L520 1250L328 1247L327 1265L630
1536H765Z" />
<glyph unicode="&#xf5;" horiz-adv-x="1127" d="M65 523L68 546Q80 658 123 759T237 938T406 1061T624 1102Q740 1100 823 1054T959 932T1033 758T1044 554L1042 531Q1029 419 986 319T871 142T702 21T485 -20Q370 -18 287 27T151 149T77 321T65 523ZM302 546L300
523Q295 468 299 407T323 293T385 206T497 170Q571 168 626 200T718 286T777 404T806 531L808 554Q814 608 810 669T786 785T724 874T612 911Q537 913 482 881T390 793T332 673T302 546ZM910 1524L1052 1514Q1047 1449 1020 1390T942 1293T820 1256Q782 1257 750
1272T688 1306T627 1339T561 1352Q514 1350 490 1319T454 1248L308 1255Q314 1319 342 1379T420 1477T543 1514Q579 1513 610 1499T672 1465T733 1432T802 1419Q848 1420 873 1451T910 1524Z" />
<glyph unicode="&#xf6;" horiz-adv-x="1127" d="M65 523L68 546Q80 658 123 759T237 938T406 1061T624 1102Q740 1100 823 1054T959 932T1033 758T1044 554L1042 531Q1029 419 986 319T871 142T702 21T485 -20Q370 -18 287 27T151 149T77 321T65 523ZM302 546L300
523Q295 468 299 407T323 293T385 206T497 170Q571 168 626 200T718 286T777 404T806 531L808 554Q814 608 810 669T786 785T724 874T612 911Q537 913 482 881T390 793T332 673T302 546ZM332 1366Q332 1417 367 1451T453 1486Q503 1487 539 1455T576 1372Q576 1321
541 1288T455 1253Q406 1252 370 1284T332 1366ZM782 1365Q781 1416 816 1450T902 1485Q952 1486 988 1454T1025 1370Q1026 1319 990 1286T904 1252Q855 1251 819 1282T782 1365Z" />
<glyph unicode="&#xf7;" horiz-adv-x="1134" d="M1084 792L1048 586H62L98 792H1084ZM509 1089Q509 1149 549 1187T646 1226Q703 1227 743 1192T783 1098Q784 1038 744 1001T646 963Q590 962 550 997T509 1089ZM368 276Q369 336 408 373T506 412Q563 413 603 378T643
284Q643 225 603 188T505 149Q448 148 408 183T368 276Z" />
<glyph unicode="&#xf8;" horiz-adv-x="1123" d="M1072 1213L195 -139H42L920 1213H1072ZM63 522L66 545Q80 657 124 758T241 938T412 1061T631 1103Q746 1100 829 1054T963 931T1034 757T1043 555L1041 531Q1027 419 982 319T865 141T694 20T476 -21Q361 -18 279
27T145 148T73 320T63 522ZM302 545L299 522Q294 468 296 408T318 294T378 206T489 170Q564 168 619 199T713 285T773 404T805 531L807 554Q814 608 811 669T789 784T729 874T617 911Q542 913 487 881T393 794T333 674T302 545Z" />
<glyph unicode="&#xf9;" horiz-adv-x="1105" d="M694 267L835 1082H1071L883 0H661L694 267ZM760 480L838 483Q826 385 794 294T707 130T570 17T377 -21Q288 -18 228 14T132 103T86 231T82 383L199 1082H434L316 380Q313 341 316 305T333 240T374 194T447 174Q543
171 607 211T709 323T760 480ZM637 1536L779 1235H599L385 1535L637 1536Z" />
<glyph unicode="&#xfa;" horiz-adv-x="1105" d="M694 267L835 1082H1071L883 0H661L694 267ZM760 480L838 483Q826 385 794 294T707 130T570 17T377 -21Q288 -18 228 14T132 103T86 231T82 383L199 1082H434L316 380Q313 341 316 305T333 240T374 194T447 174Q543
171 607 211T709 323T760 480ZM539 1235L776 1536H1057L745 1235H539Z" />
<glyph unicode="&#xfb;" horiz-adv-x="1105" d="M694 267L835 1082H1071L883 0H661L694 267ZM760 480L838 483Q826 385 794 294T707 130T570 17T377 -21Q288 -18 228 14T132 103T86 231T82 383L199 1082H434L316 380Q313 341 316 305T333 240T374 194T447 174Q543
171 607 211T709 323T760 480ZM772 1536L1008 1263V1246L823 1249L703 1405L527 1250L335 1247L334 1265L637 1536H772Z" />
<glyph unicode="&#xfc;" horiz-adv-x="1105" d="M694 267L835 1082H1071L883 0H661L694 267ZM760 480L838 483Q826 385 794 294T707 130T570 17T377 -21Q288 -18 228 14T132 103T86 231T82 383L199 1082H434L316 380Q313 341 316 305T333 240T374 194T447 174Q543
171 607 211T709 323T760 480ZM339 1366Q339 1417 374 1451T460 1486Q510 1487 546 1455T583 1372Q583 1321 548 1288T462 1253Q413 1252 377 1284T339 1366ZM789 1365Q788 1416 823 1450T909 1485Q959 1486 995 1454T1032 1370Q1033 1319 997 1286T911 1252Q862
1251 826 1282T789 1365Z" />
<glyph unicode="&#xfd;" horiz-adv-x="973" d="M343 130L789 1082H1049L415 -166Q388 -222 354 -272T275 -360T177 -419T54 -441Q23 -440 -7 -435T-68 -422L-51 -237Q-40 -238 -29 -239T-7 -241Q50 -243 93 -227T168 -176T226 -93L343 130ZM345 1082L455 260L453
14L289 -28L99 1082H345ZM485 1235L722 1536H1003L691 1235H485Z" />
<glyph unicode="&#xfe;" horiz-adv-x="1134" d="M524 1536L185 -416H-51L288 1536H524ZM1035 557L1033 536Q1020 437 986 338T894 157T750 25T550 -21Q448 -19 379 27T269 149T212 313T200 491L210 571Q226 666 264 761T363 934T508 1059T701 1103Q812 1100 882
1050T988 919T1035 744T1035 557ZM797 538L800 559Q805 611 804 670T786 783T732 872T625 909Q563 912 513 890T425 827T361 736T325 630L294 434Q291 384 303 338T340 255T404 195T499 171Q573 168 626 202T714 291T769 411T797 538Z" />
<glyph unicode="&#xff;" horiz-adv-x="973" d="M343 130L789 1082H1049L415 -166Q388 -222 354 -272T275 -360T177 -419T54 -441Q23 -440 -7 -435T-68 -422L-51 -237Q-40 -238 -29 -239T-7 -241Q50 -243 93 -227T168 -176T226 -93L343 130ZM345 1082L455 260L453
14L289 -28L99 1082H345ZM286 1366Q286 1417 321 1451T407 1486Q457 1487 493 1455T530 1372Q530 1321 495 1288T409 1253Q360 1252 324 1284T286 1366ZM736 1365Q735 1416 770 1450T856 1485Q906 1486 942 1454T979 1370Q980 1319 944 1286T858 1252Q809 1251
773 1282T736 1365Z" />
<glyph unicode="&#x2013;" horiz-adv-x="1286" d="M1189 817L1148 624H155L196 817H1189Z" />
<glyph unicode="&#x2014;" horiz-adv-x="1540" d="M1502 817L1448 624H124L179 817H1502Z" />
<glyph unicode="&#x2018;" horiz-adv-x="434" d="M178 1062L198 1197Q209 1270 240 1336T318 1460T421 1564L540 1486Q492 1420 455 1351T403 1199L379 1062H178Z" />
<glyph unicode="&#x2019;" horiz-adv-x="429" d="M506 1536L484 1396Q473 1322 442 1256T365 1132T263 1028L141 1107Q190 1173 227 1242T279 1393L304 1536H506Z" />
<glyph unicode="&#x201a;" horiz-adv-x="449" d="M275 207L254 74Q242 0 211 -66T135 -190T32 -294L-89 -216Q-40 -150 -6 -80T44 71L68 207H275Z" />
<glyph unicode="&#x201c;" horiz-adv-x="766" d="M186 1062L206 1197Q217 1270 248 1336T326 1460T429 1564L548 1486Q500 1420 463 1351T411 1199L387 1062H186ZM503 1062L523 1197Q534 1270 565 1336T643 1460T746 1564L865 1486Q817 1420 780 1351T728 1199L704
1062H503Z" />
<glyph unicode="&#x201d;" horiz-adv-x="773" d="M519 1536L497 1396Q486 1322 455 1256T378 1132T276 1028L154 1107Q203 1173 240 1242T292 1393L317 1536H519ZM836 1536L814 1396Q803 1322 772 1256T695 1132T593 1028L471 1107Q520 1173 557 1242T609 1393L634
1536H836Z" />
<glyph unicode="&#x201e;" horiz-adv-x="746" d="M283 254L253 74Q241 -2 211 -71T134 -202T29 -312L-92 -235Q-42 -164 -7 -90T44 71L76 254H283ZM594 254L564 74Q552 -3 521 -72T442 -202T336 -312L215 -235Q265 -164 302 -90T355 71L387 254H594Z" />
<glyph unicode="&#x2022;" horiz-adv-x="694" d="M159 722L161 762Q166 859 227 921T388 984Q482 983 536 924T590 772L589 731Q583 635 521 575T361 516Q270 517 215 574T159 722Z" />
<glyph unicode="&#x2039;" horiz-adv-x="609" d="M609 936L296 535L97 532V550L433 937L609 936ZM285 543L459 140L311 139L90 527V545L285 543Z" />
<glyph unicode="&#x203a;" horiz-adv-x="599" d="M-4 140L309 541L508 544L509 526L172 139L-4 140ZM147 936H294L515 549V531L321 533L147 936Z" />
</font>
</defs>
</svg>
