<?xml version="1.0" standalone="no"?>
<!DOCTYPE svg PUBLIC "-//W3C//DTD SVG 1.1//EN" "http://www.w3.org/Graphics/SVG/1.1/DTD/svg11.dtd">
<svg xmlns="http://www.w3.org/2000/svg">
<defs >
<font id="Nunito" horiz-adv-x="596" ><font-face
    font-family="Nunito ExtraLight Black"
    units-per-em="1000"
    panose-1="0 0 0 0 0 0 0 0 0 0"
    ascent="1011"
    descent="-353"
    alphabetic="0" />
<glyph unicode=" " horiz-adv-x="286" />
<glyph unicode="!" horiz-adv-x="272" d="M138 239Q111 239 96 255T83 306L96 607Q98 659 125 686T202 714Q254 714 277 681T284 591L203 293Q195 266 179 253T138 239ZM113 -6Q67 -6 41 21T14 92Q14 135 40 161T113 188Q159 188 184 162T210 92Q210 48 185 21T113 -6Z" />
<glyph unicode="&quot;" horiz-adv-x="515" d="M163 389Q134 389 117 405T100 460L104 627Q105 665 131 689T197 714Q228 714 249 701T280 663T278 603L233 446Q224 415 205 402T163 389ZM410 389Q381 389 364 405T347 460L351 627Q352 665 378 689T444 714Q475
714 496 701T527 663T525 603L480 446Q471 415 452 402T410 389Z" />
<glyph unicode="#" horiz-adv-x="600" d="M97 -9Q64 -9 55 12T57 68L94 171L137 159H98Q81 159 68 163T47 177T40 204Q40 234 55 249T104 265H168L125 254L197 460L232 448H167Q149 448 137 452T117 466T109 494Q109 522 124 538T173 554H270L227 542L268 660Q278
688 295 701T336 714Q367 714 376 694T373 637L344 554H432L469 660Q479 688 497 701T538 714Q570 714 579 694T577 637L543 542L500 554H537Q555 554 568 550T588 537T595 510Q595 481 580 465T532 448H469L513 460L441 254L405 265H469Q487 265 500 261T520 248T527
221Q527 193 512 176T463 159H367L410 171L366 45Q356 17 339 4T298 -9Q267 -9 258 12T260 68L292 159H205L165 45Q155 17 138 4T97 -9ZM242 265H330L395 448H307L242 265Z" />
<glyph unicode="$" horiz-adv-x="600" d="M258 -124Q221 -124 204 -106T193 -50L204 19L222 -6Q181 -2 135 10T53 40Q26 54 16 76T8 123T26 165T65 189T119 181Q157 163 203 153T291 143Q327 143 351 150T389 172T402 206Q402 222 394 233T371 252T329 267L221
294Q146 313 103 361T59 480Q59 552 96 602T195 680T331 712L311 694L323 773Q328 798 347 813T397 828Q426 828 445 811T459 760L449 695L437 704Q465 699 493 689T550 662Q573 651 581 631T588 588T572 548T535 526T478 534Q447 549 414 555T351 561Q296 561
266 544T236 500Q236 477 252 462T303 438L412 411Q492 392 535 343T579 225Q579 153 544 104T449 28T318 -6L342 18L328 -69Q324 -95 306 -109T258 -124Z" />
<glyph unicode="%" horiz-adv-x="964" d="M329 7Q314 -14 294 -20T256 -21T225 -1T211 33T225 75L668 693Q683 714 703 720T741 721T772 702T786 668T772 626L329 7ZM241 280Q155 280 111 326T66 449Q66 523 90 582T158 676T267 711Q352 711 396 664T441 540Q441
465 418 406T350 314T241 280ZM240 388Q261 388 274 412T295 471T303 543Q304 577 295 589T267 602Q247 602 233 579T212 520T204 447Q204 414 213 401T240 388ZM729 -11Q643 -11 599 35T554 158Q554 232 578 291T646 385T755 420Q840 420 884 373T929 249Q929
174 906 115T838 23T729 -11ZM728 97Q749 97 763 121T784 180T792 252Q792 286 783 299T756 312Q735 312 721 288T700 229T692 156Q692 123 701 110T728 97Z" />
<glyph unicode="&amp;" horiz-adv-x="766" d="M285 -11Q211 -11 156 12T71 76T41 169Q41 207 53 240T89 300T143 349T210 390L249 408L216 374Q188 402 175 439T162 513Q162 576 193 621T278 691T397 716Q482 716 532 674T582 565Q582 517 557 478T493 408T410
356L408 390L535 245H504Q520 266 532 287T555 331T574 383Q586 414 605 429T656 444Q694 444 713 423T720 365Q707 321 689 283T649 212T599 147V186L672 103Q697 76 696 50T673 7T617 -11Q601 -11 583 -6T551 14L496 78L520 76Q473 35 415 12T285 -11ZM313 123Q350
123 379 136T439 176L435 135L267 325L335 319L307 306Q281 294 261 277T229 240T217 196Q217 165 241 144T313 123ZM394 600Q362 600 343 580T323 523Q323 511 326 499T338 473T361 442L332 449Q369 456 393 472T431 509T444 553Q444 574 432 587T394 600Z" />
<glyph unicode="&apos;" horiz-adv-x="269" d="M163 389Q134 389 117 405T100 460L104 627Q105 665 131 689T197 714Q228 714 249 701T280 663T278 603L233 446Q224 415 205 402T163 389Z" />
<glyph unicode="(" horiz-adv-x="407" d="M151 -137Q119 -55 106 19T92 163Q92 261 116 353T183 529T281 679Q303 704 331 709T382 702T415 666T409 609Q366 522 339 441T297 276T283 97Q283 67 284 38T289 -21T296 -84Q302 -125 285 -149T241 -181T189 -177T151 -137Z" />
<glyph unicode=")" horiz-adv-x="407" d="M131 -151Q110 -176 82 -181T30 -175T-3 -139T3 -82Q46 3 73 84T115 251T129 430Q129 460 128 489T123 548T116 611Q110 652 127 676T171 708T223 704T261 663Q293 582 306 508T320 364Q320 267 296 174T230 -1T131 -151Z" />
<glyph unicode="*" horiz-adv-x="456" d="M167 347Q143 361 140 383T152 430L209 512L234 475L134 468Q105 465 87 479T69 521Q69 549 87 563T134 575L235 566L210 527L153 612Q137 638 140 660T169 696Q193 711 214 701T247 663L282 583H261L296 663Q307 691
329 700T375 695Q400 680 403 658T390 611L333 529L309 566L409 574Q438 577 456 563T474 521Q474 493 456 479T409 468L309 475L333 512L390 430Q407 406 404 384T375 347Q350 333 330 341T297 378L261 460H282L245 379Q233 351 213 342T167 347Z" />
<glyph unicode="+" horiz-adv-x="600" d="M270 31Q239 31 225 49T215 100L235 228H115Q85 228 69 241T53 276Q53 308 71 327T123 346H254L274 479Q279 509 296 523T343 537Q372 537 387 519T396 468L378 346H497Q528 346 544 333T560 298Q560 266 542 247T490
228H358L337 90Q332 60 316 46T270 31Z" />
<glyph unicode="," horiz-adv-x="272" d="M107 -123Q87 -142 68 -142T36 -131T23 -101T43 -65Q74 -36 88 -11T107 43L116 -6Q70 -6 42 20T14 92Q14 135 40 161T112 188Q159 188 182 159T206 85Q206 44 196 10T164 -57T107 -123Z" />
<glyph unicode="-" horiz-adv-x="445" d="M136 199Q98 199 78 214T58 257Q58 292 77 314T131 337H318Q356 337 376 324T396 280Q396 245 377 222T322 199H136Z" />
<glyph unicode="." horiz-adv-x="272" d="M113 -6Q67 -6 41 21T14 92Q14 135 40 161T113 188Q159 188 184 162T210 92Q210 48 185 21T113 -6Z" />
<glyph unicode="/" horiz-adv-x="349" d="M82 -28Q70 -52 51 -61T12 -67T-23 -51T-43 -18T-36 27L296 716Q307 740 326 749T365 755T401 739T421 706T414 661L82 -28Z" />
<glyph unicode="0" horiz-adv-x="600" d="M288 -11Q170 -11 107 59T43 262Q43 401 80 503T185 660T347 716Q465 716 528 646T591 444Q591 305 554 203T449 45T288 -11ZM294 135Q346 135 380 217T417 464Q418 519 399 544T342 570Q291 570 256 490T218 241Q217
187 236 161T294 135Z" />
<glyph unicode="1" horiz-adv-x="600" d="M132 0Q94 0 74 16T53 64Q53 103 77 126T142 149H231L296 558L386 552L235 466Q205 450 182 453T143 474T125 514T132 560T171 600L325 687Q352 703 373 708T420 714Q461 714 479 691T490 626L415 149H480Q518 149 538
133T559 86Q559 47 536 24T470 0H132Z" />
<glyph unicode="2" horiz-adv-x="600" d="M121 0Q85 0 61 18T37 71Q37 100 49 121T96 174L294 356Q342 400 366 432T391 500Q391 532 369 548T308 565Q288 565 260 559T199 534Q174 521 153 526T119 549T103 589T109 632T142 666Q189 691 240 703T349 716Q415
716 465 692T543 627T571 531Q571 472 551 426T494 340T410 259L231 103L230 149H462Q500 149 520 133T541 87Q541 47 518 24T452 0H121Z" />
<glyph unicode="3" horiz-adv-x="600" d="M274 -11Q227 -11 174 -2T72 33Q46 45 36 67T29 113T45 155T80 180T125 173Q162 153 201 147T274 140Q303 140 325 149T360 175T374 219Q374 249 353 265T289 282H250Q212 282 191 298T170 346Q170 383 194 405T259 428H300Q331
428 354 436T391 462T405 503Q405 534 382 549T320 565Q293 565 261 559T197 536Q169 523 147 528T111 551T95 590T103 634T144 670Q195 695 247 705T347 716Q428 716 479 690T554 622T580 533Q581 487 560 450T501 389T414 356V370Q479 357 514 313T549 206Q549
150 518 101T425 20T274 -11Z" />
<glyph unicode="4" horiz-adv-x="600" d="M369 -9Q327 -9 306 14T292 82L298 118H110Q62 118 40 137T18 191Q18 221 32 244T69 295L374 653Q398 681 421 693T480 706Q518 706 538 680T551 605L495 257H520Q552 257 570 243T588 202Q588 164 568 141T500 118H475L468
77Q462 35 438 13T369 -9ZM319 257L356 486H381L155 214L161 257H319Z" />
<glyph unicode="5" horiz-adv-x="600" d="M275 -11Q232 -11 182 -1T88 32Q61 46 52 67T47 112T65 152T100 175T146 170Q180 153 209 147T275 140Q310 140 337 151T379 184T394 235Q394 272 369 291T304 310Q283 310 261 304T216 283Q197 272 179 266T139 259Q107
259 91 277T80 336L127 629Q133 667 156 686T216 705H519Q556 705 577 689T598 641Q598 602 575 579T508 556H289L264 399H222Q254 427 294 441T374 456Q436 456 479 429T546 356T569 254Q569 171 529 112T422 21T275 -11Z" />
<glyph unicode="6" horiz-adv-x="600" d="M314 -11Q230 -11 171 22T82 118T51 264Q51 375 75 459T147 601T260 687T407 716Q450 716 492 706T572 671Q597 656 604 634T607 590T586 552T549 531T501 539Q475 553 449 559T398 566Q349 566 313 544T256 479T226 372L221
334H207Q219 375 245 404T309 448T386 463Q441 463 482 436T546 362T569 259Q569 182 537 121T447 24T314 -11ZM308 129Q336 129 357 143T389 182T401 242Q401 267 392 285T364 313T321 323Q293 323 272 309T239 270T227 210Q227 187 237 168T265 139T308 129Z"
/>
<glyph unicode="7" horiz-adv-x="600" d="M151 -9Q116 -9 95 7T73 51T94 112L440 608L439 553H173Q134 553 112 570T90 620Q90 661 112 683T177 705H540Q592 705 610 687T629 637Q629 607 617 582T580 521L256 49Q234 17 210 4T151 -9Z" />
<glyph unicode="8" horiz-adv-x="600" d="M273 -11Q193 -11 136 12T48 77T17 179Q17 232 41 275T108 344T204 373L199 344Q146 358 115 400T83 506Q83 575 120 621T219 691T359 715Q432 715 485 693T567 632T596 539Q596 494 575 453T517 384T432 350L436 378Q495
366 531 323T567 208Q567 137 529 88T424 14T273 -11ZM282 127Q336 127 369 150T402 216Q402 251 375 269T301 287Q246 287 214 264T182 199Q182 164 209 146T282 127ZM330 426Q360 426 382 437T417 467T429 512Q429 543 409 560T352 578Q304 578 277 553T250 490Q250
459 271 443T330 426Z" />
<glyph unicode="9" horiz-adv-x="600" d="M229 -11Q187 -11 144 -1T61 34Q37 49 29 71T26 114T47 152T84 174T132 166Q159 152 186 146T238 139Q286 139 321 161T378 226T408 333L413 371H427Q415 330 388 302T325 258T248 242Q193 242 152 269T88 344T65 446Q65
524 97 585T186 681T320 716Q404 716 462 683T552 589T583 441Q583 331 559 247T488 105T376 18T229 -11ZM312 382Q341 382 362 396T394 435T406 495Q406 519 396 537T369 566T326 576Q298 576 277 562T244 523T232 463Q232 439 242 421T270 392T312 382Z" />
<glyph unicode=":" horiz-adv-x="272" d="M113 -6Q68 -6 42 21T15 92Q15 135 41 161T113 188Q160 188 185 162T211 92Q211 48 186 21T113 -6ZM163 304Q117 304 91 331T64 401Q64 445 90 471T163 498Q209 498 235 472T261 401Q261 359 235 332T163 304Z" />
<glyph unicode=";" horiz-adv-x="272" d="M107 -123Q87 -142 68 -142T36 -131T23 -101T43 -65Q74 -36 88 -11T107 43L116 -6Q70 -6 42 20T14 92Q14 135 40 161T112 188Q159 188 182 159T206 85Q206 44 196 10T164 -57T107 -123ZM163 304Q117 304 91 331T64 401Q64
445 90 471T163 498Q209 498 235 472T261 401Q261 359 235 332T163 304Z" />
<glyph unicode="&lt;" horiz-adv-x="600" d="M444 56L129 189Q52 222 52 274Q52 314 76 339T139 378L501 511Q526 520 544 514T573 492T585 458T576 423T543 397L99 236L113 323L492 168Q515 159 524 142T532 105T518 72T487 52T444 56Z" />
<glyph unicode="=" horiz-adv-x="600" d="M131 328Q100 328 85 341T69 376Q69 408 87 427T139 446H514Q545 446 560 433T576 398Q576 366 558 347T506 328H131ZM99 128Q69 128 53 141T37 177Q37 208 55 227T107 246H482Q513 246 528 233T544 198Q544 166 526 147T474
128H99Z" />
<glyph unicode="&gt;" horiz-adv-x="600" d="M112 63Q88 54 69 60T40 81T28 116T37 151T70 176L514 337L500 250L121 406Q97 415 88 432T81 468T94 502T124 522T167 518L483 385Q560 354 560 300Q560 261 536 237T474 197L112 63Z" />
<glyph unicode="?" horiz-adv-x="478" d="M246 233Q217 233 203 250T194 300Q198 327 206 348T232 391T281 439Q300 455 313 467T332 492T339 521Q339 541 325 553T281 565Q251 565 227 559T174 539Q144 526 122 531T87 553T73 592T83 636T123 671Q168 695 219
705T321 716Q382 716 426 694T494 636T519 554Q519 512 505 480T464 423T402 377Q368 357 348 340T318 306T300 269Q295 253 283 243T246 233ZM214 -6Q169 -6 143 21T116 92Q116 135 142 161T214 188Q261 188 286 162T312 92Q312 48 287 21T214 -6Z" />
<glyph unicode="@" horiz-adv-x="954" d="M496 -167Q398 -167 318 -136T178 -48T86 87T54 262Q54 365 87 448T181 592T327 684T517 716Q639 716 728 670T867 539T917 339Q917 253 893 190T823 93T719 58Q657 58 620 90T573 184L618 213Q593 135 548 97T443 58Q360
58 315 110T269 252Q269 325 296 381T371 470T480 503Q533 503 565 478T612 399H588L595 437Q607 493 664 493Q696 493 711 476T720 425L693 273Q689 253 688 238T686 210Q686 182 696 170T728 157Q753 157 772 179T803 243T815 339Q815 429 780 490T679 583T516
615Q411 615 333 572T213 450T170 262Q170 160 210 87T324 -26T496 -66Q553 -66 602 -54T694 -18Q720 -5 738 -13T762 -40T762 -79T730 -113Q685 -139 625 -153T496 -167ZM472 164Q502 164 525 183T560 236T573 318Q573 356 557 376T507 397Q476 397 453 379T416
329T403 254Q403 209 421 187T472 164Z" />
<glyph unicode="A" horiz-adv-x="763" d="M67 -9Q34 -9 13 5T-13 43T1 96L349 653Q369 686 392 700T453 714Q490 714 514 696T549 639L714 99Q725 64 718 40T691 3T643 -9Q603 -9 583 9T550 70L522 180L573 143H173L235 176L156 42Q142 17 120 4T67 -9ZM433 513L278
251L256 284H536L505 247L435 513H433Z" />
<glyph unicode="B" horiz-adv-x="702" d="M129 0Q81 0 58 27T42 102L123 617Q130 661 156 683T226 705H455Q538 705 589 683T663 622T686 535Q686 461 639 414T516 354V371Q581 358 617 316T654 211Q654 109 582 55T388 0H129ZM222 135H377Q429 135 454 158T479
223Q479 257 456 273T390 290H247L222 135ZM268 425H403Q456 425 483 447T511 512Q511 540 491 555T424 570H291L268 425Z" />
<glyph unicode="C" horiz-adv-x="688" d="M405 -11Q307 -11 230 25T108 134T63 313Q63 398 89 471T165 599T290 685T462 716Q507 716 555 706T646 673Q673 659 682 637T687 590T668 547T632 520T585 523Q548 541 518 548T458 556Q391 556 347 525T280 440T257
320Q257 262 275 224T330 167T427 149Q453 149 480 155T536 174Q564 186 586 179T622 153T637 111T628 65T589 30Q549 9 498 -1T405 -11Z" />
<glyph unicode="D" horiz-adv-x="786" d="M129 0Q81 0 58 27T42 102L123 617Q130 661 156 683T226 705H387Q565 705 661 623T758 396Q758 311 732 239T654 113T526 30T349 0H129ZM232 149H351Q405 149 445 166T513 216T553 292T567 393Q567 472 522 514T387 556H297L232
149Z" />
<glyph unicode="E" horiz-adv-x="614" d="M130 0Q80 0 57 26T42 102L123 617Q130 661 156 683T226 705H560Q596 705 615 690T634 647Q634 608 612 586T550 563H290L269 429H494Q530 429 549 414T568 371Q568 332 545 310T484 287H246L223 142H470Q506 142 525
127T544 84Q544 45 522 23T461 0H130Z" />
<glyph unicode="F" horiz-adv-x="579" d="M122 -9Q77 -9 55 17T41 93L123 617Q130 661 156 683T226 705H552Q589 705 608 690T627 647Q627 610 605 587T543 563H299L276 421H485Q522 421 541 406T560 364Q560 326 538 303T476 280H254L222 79Q208 -9 122 -9Z" />
<glyph unicode="G" horiz-adv-x="747" d="M407 -11Q308 -11 231 26T108 135T63 312Q63 397 90 470T169 599T299 685T477 716Q528 716 576 706T661 679Q690 666 701 643T710 596T692 552T654 525T601 529Q569 544 535 551T468 559Q398 559 350 526T278 438T253
319Q253 229 301 186T435 143Q464 143 495 148T559 164L517 97L545 268H479Q444 268 424 282T404 323Q404 358 426 377T487 397H630Q670 397 689 375T702 313L668 99Q663 67 647 46T599 16Q555 2 505 -4T407 -11Z" />
<glyph unicode="H" horiz-adv-x="786" d="M118 -9Q72 -9 52 19T41 99L124 623Q131 669 157 691T228 714Q275 714 294 686T305 606L278 433H568L599 623Q606 669 631 691T702 714Q749 714 768 686T779 606L696 83Q689 36 664 14T593 -9Q546 -9 527 19T516 99L544
282H254L222 83Q215 36 190 14T118 -9Z" />
<glyph unicode="I" horiz-adv-x="312" d="M119 -9Q72 -9 53 19T41 99L124 623Q131 669 157 691T229 714Q275 714 294 686T305 606L222 83Q215 36 190 14T119 -9Z" />
<glyph unicode="J" horiz-adv-x="390" d="M38 -8Q1 -10 -21 9T-42 63Q-40 99 -25 119T25 140L55 141Q93 143 112 161T139 220L203 630Q210 673 234 693T302 714Q348 714 370 688T385 616L320 208Q309 141 283 95T205 24T68 -6L38 -8Z" />
<glyph unicode="K" horiz-adv-x="712" d="M118 -9Q74 -9 53 18T40 97L124 624Q131 670 157 692T228 714Q272 714 293 687T305 608L273 403H275L552 672Q574 693 593 703T643 714Q679 714 699 694T720 644T692 588L421 331L410 408L633 111Q654 84 651 56T626 10T570
-9Q537 -9 516 4T469 52L262 323H260L222 79Q215 34 190 13T118 -9Z" />
<glyph unicode="L" horiz-adv-x="585" d="M127 0Q79 0 57 26T41 100L125 629Q132 672 157 693T225 714Q271 714 293 688T307 614L234 153H464Q502 153 523 137T545 91Q545 49 521 25T453 0H127Z" />
<glyph unicode="M" horiz-adv-x="884" d="M114 -8Q70 -8 53 16T40 82L128 637Q135 676 157 695T218 714Q252 714 272 700T306 649L454 270H424L703 662Q723 690 745 702T802 714Q844 714 864 691T878 624L790 69Q784 31 761 12T699 -8Q658 -8 639 16T626 82L680
425H703L494 134Q479 113 463 104T423 95Q397 95 382 107T355 144L238 419H260L204 69Q198 31 176 12T114 -8Z" />
<glyph unicode="N" horiz-adv-x="757" d="M115 -9Q74 -9 53 17T40 91L126 637Q133 676 155 695T210 714Q246 714 264 701T301 658L553 245H522L583 630Q590 673 614 693T681 714Q721 714 740 688T752 614L665 69Q659 30 639 11T586 -9Q551 -9 530 4T489 49L239
460H269L208 75Q201 32 179 12T115 -9Z" />
<glyph unicode="O" horiz-adv-x="807" d="M396 -11Q295 -11 220 26T104 134T62 305Q62 396 89 471T167 602T288 686T445 716Q547 716 622 679T738 571T779 401Q779 309 752 234T674 103T553 19T396 -11ZM398 143Q459 143 501 175T566 264T589 397Q589 481 550
521T442 562Q383 562 341 530T276 441T253 308Q253 225 292 184T398 143Z" />
<glyph unicode="P" horiz-adv-x="676" d="M117 -9Q73 -9 53 19T41 98L123 614Q130 660 157 682T229 705H435Q563 705 626 651T690 501Q690 377 615 310T396 243H248L222 82Q215 36 189 14T117 -9ZM270 384H403Q458 384 486 410T515 485Q515 526 490 545T410 564H298L270
384Z" />
<glyph unicode="Q" horiz-adv-x="807" d="M671 -91Q688 -125 682 -152T655 -194T607 -213T555 -203T515 -157L469 -56Q457 -31 439 -21T380 -11L522 40Q566 39 595 23T641 -30L671 -91ZM396 -11Q295 -11 220 26T104 134T62 305Q62 396 89 471T167 602T288 686T445
716Q547 716 622 679T738 571T779 401Q779 309 752 234T674 103T553 19T396 -11ZM398 143Q459 143 501 175T566 264T589 397Q589 481 550 521T442 562Q383 562 341 530T276 441T253 308Q253 225 292 184T398 143Z" />
<glyph unicode="R" horiz-adv-x="706" d="M117 -9Q73 -9 53 19T41 99L123 614Q130 660 157 682T230 705H440Q561 705 625 652T690 504Q690 421 654 368T555 290T411 265V283H448Q500 283 532 255T583 178L610 107Q625 71 621 45T595 5T534 -9Q497 -9 475 10T437
70L383 212Q373 240 357 251T311 263H251L223 82Q216 36 189 14T117 -9ZM271 393H404Q458 393 486 416T515 487Q515 526 490 545T409 564H298L271 393Z" />
<glyph unicode="S" horiz-adv-x="651" d="M303 -11Q265 -11 225 -6T145 11T72 39Q45 53 35 75T27 122T45 164T83 188T137 180Q182 158 231 149T321 140Q378 140 408 158T439 205Q439 228 421 243T362 268L247 296Q171 313 127 361T82 480Q82 537 106 580T172 654T268
700T381 716Q429 716 485 705T592 666Q616 654 626 633T635 590T619 550T579 528T518 536Q487 550 450 557T380 565Q343 565 317 557T276 533T262 499Q262 476 279 461T332 437L447 410Q529 391 574 343T619 226Q619 166 594 122T524 48T422 4T303 -11Z" />
<glyph unicode="T" horiz-adv-x="644" d="M284 -9Q241 -9 220 19T207 98L279 555H137Q99 555 78 571T57 616Q57 658 81 681T147 705H630Q668 705 688 689T709 645Q709 603 686 579T620 555H463L388 82Q381 37 356 14T284 -9Z" />
<glyph unicode="U" horiz-adv-x="748" d="M349 -11Q281 -11 224 9T128 70T74 173T71 318L120 629Q127 672 152 693T220 714Q266 714 287 688T301 613L252 308Q241 230 268 186T364 142Q426 142 464 176T513 281L568 629Q575 672 600 693T668 714Q713 714 733 688T747
614L696 290Q681 193 640 126T528 24T349 -11Z" />
<glyph unicode="V" horiz-adv-x="742" d="M337 -9Q298 -9 274 10T239 68L83 592Q74 626 81 651T110 690T162 705Q196 705 219 688T254 625L377 171H322L599 641Q619 675 641 690T699 705Q736 705 756 688T780 643T765 587L438 53Q418 20 395 6T337 -9Z" />
<glyph unicode="W" horiz-adv-x="1128" d="M297 -9Q261 -9 240 11T211 72L104 605Q94 654 117 684T187 714Q223 714 244 694T273 631L350 195H305L538 648Q555 682 578 698T634 714Q667 714 685 694T712 631L790 195H748L974 647Q992 681 1013 697T1070 714Q1122
714 1140 680T1134 597L853 56Q836 22 812 7T749 -9Q713 -9 692 11T663 72L587 458H612L402 57Q385 23 361 7T297 -9Z" />
<glyph unicode="X" horiz-adv-x="698" d="M96 -9Q60 -9 39 11T18 62T43 121L287 397V315L124 587Q105 619 109 648T136 695T194 714Q226 714 245 700T287 645L399 448H355L528 656Q556 689 577 701T630 714Q666 714 687 694T710 644T686 586L445 314V398L613 118Q632
88 628 59T600 10T542 -9Q510 -9 491 5T448 59L330 263H374L198 49Q171 16 149 4T96 -9Z" />
<glyph unicode="Y" horiz-adv-x="645" d="M282 -9Q238 -9 219 19T207 98L249 360L270 259L94 586Q77 619 81 648T108 695T168 714Q199 714 220 700T261 645L363 448H327L500 656Q528 690 549 702T602 714Q638 714 659 694T680 645T656 586L378 259L432 360L388
82Q373 -9 282 -9Z" />
<glyph unicode="Z" horiz-adv-x="625" d="M93 0Q63 0 44 15T18 56T22 113T63 176L465 606L469 554H175Q137 554 117 570T96 616Q96 658 120 681T186 705H566Q602 705 623 690T651 649T647 593T608 533L204 100L199 151H508Q546 151 567 135T588 90Q588 48 564
24T498 0H93Z" />
<glyph unicode="[" horiz-adv-x="401" d="M137 -180Q94 -180 70 -151T51 -80L165 639Q169 668 190 686T242 705H381Q419 705 437 689T456 645Q456 607 436 591T379 574H332L234 -49H278Q310 -49 323 -63T337 -101Q337 -138 317 -159T259 -180H137Z" />
<glyph unicode="\" horiz-adv-x="349" d="M182 -16L66 684Q61 710 72 728T101 754T140 762T177 746T198 705L315 4Q319 -22 309 -40T280 -66T240 -74T203 -58T182 -16Z" />
<glyph unicode="]" horiz-adv-x="401" d="M25 -180Q-13 -180 -31 -164T-50 -120Q-50 -82 -30 -66T27 -49H74L172 574H128Q96 574 83 589T69 626Q69 663 89 684T147 705H269Q312 705 337 676T355 605L241 -114Q237 -143 216 -161T164 -180H25Z" />
<glyph unicode="^" horiz-adv-x="600" d="M110 131Q71 131 59 155T64 210L269 582Q286 612 307 624T361 637Q423 637 439 569L524 212Q533 175 517 153T466 131Q432 131 421 149T404 187L315 584H401L181 177Q171 158 156 145T110 131Z" />
<glyph unicode="_" horiz-adv-x="500" d="M20 -101Q-9 -101 -22 -90T-36 -58Q-36 -26 -18 -13T25 0H386Q416 0 429 -11T442 -43Q442 -74 424 -87T381 -101H20Z" />
<glyph unicode="`" horiz-adv-x="413" d="M263 572L191 676Q173 702 175 725T193 763T231 782T275 775T310 733L362 618Q372 595 364 577T338 549T300 545T263 572Z" />
<glyph unicode="a" horiz-adv-x="568" d="M185 -11Q138 -11 100 11T39 68T16 145Q16 197 46 230T137 278T291 294H370L356 210H291Q254 210 231 205T197 188T186 157Q186 133 203 119T247 105Q274 105 293 115T325 144T342 188L360 303Q366 336 346 355T279 374Q251
374 223 369T163 351Q136 342 117 349T87 372T77 408T93 447T139 476Q184 492 225 497T304 503Q395 503 446 470T514 382T521 261L493 79Q486 35 462 13T397 -9Q358 -9 340 14T329 87L336 129L338 96Q323 59 300 35T247 0T185 -11Z" />
<glyph unicode="b" horiz-adv-x="620" d="M344 -11Q291 -11 251 12T194 81L207 122L200 80Q195 36 170 14T100 -9Q59 -9 40 18T28 94L112 626Q119 670 144 692T214 714Q256 714 275 687T287 611L256 414H246Q274 456 317 479T411 503Q466 503 507 477T570 403T593
289Q593 203 562 135T475 28T344 -11ZM306 120Q340 120 364 140T401 197T414 279Q414 324 394 348T337 372Q303 372 279 352T242 295T228 213Q228 168 249 144T306 120Z" />
<glyph unicode="c" horiz-adv-x="484" d="M285 -11Q200 -11 143 17T57 98T28 219Q28 275 46 326T102 417T195 480T325 503Q360 503 386 498T439 485Q468 476 480 458T493 418T481 380T453 354T413 354Q393 362 375 365T340 369Q304 369 279 357T239 323T217 275T210
222Q210 177 234 150T314 123Q326 123 344 127T384 139Q403 146 418 138T443 114T453 77T440 40T400 11Q377 0 346 -5T285 -11Z" />
<glyph unicode="d" horiz-adv-x="620" d="M209 -11Q154 -11 113 15T50 89T27 203Q27 290 58 358T145 464T276 503Q329 503 369 480T426 411L417 412L451 627Q458 671 484 692T554 714Q596 714 615 687T627 611L543 80Q536 36 511 14T441 -9Q400 -9 381 19T371
96L376 127L375 78Q346 36 303 13T209 -11ZM284 120Q318 120 342 141T379 197T392 279Q392 324 372 348T315 372Q281 372 257 352T219 296T206 213Q206 168 227 144T284 120Z" />
<glyph unicode="e" horiz-adv-x="555" d="M291 -11Q212 -11 153 17T61 98T28 219Q28 304 65 368T167 467T311 503Q375 503 419 482T490 425T526 344T529 250Q526 225 515 218T486 210H173L185 294H407L391 281Q396 312 389 336T362 373T309 387Q277 387 255 373T220
335T202 281L195 242Q186 183 217 152T311 120Q334 120 362 125T412 140Q439 151 457 145T485 123T493 86T479 48T443 19Q408 3 369 -4T291 -11Z" />
<glyph unicode="f" horiz-adv-x="402" d="M143 -9Q101 -9 82 18T70 94L112 361H92Q59 361 41 375T23 414Q23 450 44 471T102 492H150L131 477L134 500Q147 591 208 646T395 708L418 709Q445 711 460 699T480 669T480 631T462 598T429 582L405 580Q361 576 340
559T313 506L309 480L297 492H360Q392 492 410 479T428 440Q428 403 407 382T350 361H290L246 79Q231 -9 143 -9Z" />
<glyph unicode="g" horiz-adv-x="626" d="M265 -191Q208 -191 153 -181T58 -152Q33 -140 23 -121T15 -81T31 -44T64 -23T109 -30Q137 -44 171 -52T237 -60Q292 -60 326 -40T369 31L380 101L387 100Q365 56 321 35T227 13Q167 13 123 36T53 105T28 216Q28 274 46
326T98 418T178 480T280 503Q336 503 376 480T434 411L419 365L427 415Q434 459 459 480T528 501Q569 501 587 474T598 398L542 41Q525 -68 456 -129T265 -191ZM287 144Q323 144 348 164T386 217T399 289Q399 326 379 349T318 372Q284 372 259 353T220 300T207
227Q207 190 228 167T287 144Z" />
<glyph unicode="h" horiz-adv-x="606" d="M101 -9Q59 -9 40 18T28 95L112 626Q119 670 144 692T214 714Q256 714 275 687T287 611L255 407H244Q270 454 314 478T416 503Q469 503 506 481T559 412T564 291L531 79Q524 35 498 13T428 -9Q386 -9 367 18T354 94L385
288Q392 327 380 347T334 367Q293 367 267 340T232 262L203 79Q189 -9 101 -9Z" />
<glyph unicode="i" horiz-adv-x="281" d="M100 -9Q58 -9 39 18T27 94L78 413Q85 457 110 479T180 501Q222 501 241 474T253 398L202 79Q196 35 171 13T100 -9ZM193 572Q146 572 124 594T108 656Q114 699 142 721T220 743Q266 743 289 721T306 659Q299 616 271
594T193 572Z" />
<glyph unicode="j" horiz-adv-x="287" d="M-42 -190Q-69 -191 -85 -179T-106 -148T-108 -111T-89 -79T-50 -62Q-21 -60 -4 -45T18 3L83 413Q90 457 115 479T184 501Q226 501 246 474T258 398L200 27Q189 -46 162 -93T85 -165T-42 -190ZM196 572Q150 572 128 594T111
656Q118 699 146 721T224 743Q270 743 293 721T310 659Q303 616 275 594T196 572Z" />
<glyph unicode="k" horiz-adv-x="580" d="M101 -9Q60 -9 41 18T29 94L113 627Q120 671 145 692T215 714Q257 714 276 687T288 610L238 294H240L389 448Q414 476 436 488T491 501Q528 501 545 482T559 435T532 379L387 227L381 290L500 114Q519 83 517 55T495 9T440
-9Q400 -9 378 6T333 58L227 214H225L204 78Q190 -9 101 -9Z" />
<glyph unicode="l" horiz-adv-x="348" d="M209 -11Q113 -11 71 42T44 196L113 625Q120 669 145 691T215 714Q257 714 276 687T288 611L222 199Q217 165 229 148T265 130Q273 130 279 131T292 133Q305 133 313 124T321 87Q321 45 306 25T269 -3Q259 -7 242 -9T209 -11Z" />
<glyph unicode="m" horiz-adv-x="902" d="M102 -9Q60 -9 41 17T29 90L81 417Q88 459 113 480T180 501Q222 501 240 476T252 402L246 361L241 402Q271 456 316 479T408 503Q462 503 498 476T550 393L536 403Q564 453 609 478T711 503Q764 503 801 481T853 412T857
291L823 76Q817 34 792 13T724 -9Q680 -9 661 17T648 90L679 289Q685 327 674 347T633 367Q598 367 575 340T543 262L514 76Q508 34 483 13T414 -9Q371 -9 352 17T338 90L370 289Q376 327 365 347T324 367Q289 367 266 340T234 262L205 76Q192 -9 102 -9Z" />
<glyph unicode="n" horiz-adv-x="606" d="M101 -8Q59 -8 40 19T28 96L78 413Q85 457 111 479T180 501Q220 501 240 477T251 406L244 366V407Q270 454 314 478T416 503Q469 503 506 481T559 412T564 291L531 81Q524 37 498 15T428 -8Q386 -8 367 19T355 96L385
288Q392 327 380 347T334 367Q293 367 267 340T232 262L203 81Q189 -8 101 -8Z" />
<glyph unicode="o" horiz-adv-x="602" d="M282 -11Q201 -11 145 17T59 98T29 219Q29 290 53 343T119 432T213 485T320 503Q400 503 456 475T543 395T573 274Q573 202 549 149T483 60T389 7T282 -11ZM285 120Q319 120 343 140T381 197T394 279Q394 324 374 348T316
372Q283 372 259 352T221 296T208 213Q208 168 228 144T285 120Z" />
<glyph unicode="p" horiz-adv-x="620" d="M72 -189Q30 -189 11 -162T-1 -86L78 413Q85 457 110 479T179 501Q221 501 239 474T250 397L245 365L246 415Q274 457 317 480T411 503Q466 503 507 477T570 403T593 289Q593 203 562 135T475 28T344 -11Q291 -11 251
12T194 81L203 80L174 -102Q168 -146 143 -167T72 -189ZM306 120Q340 120 364 140T401 197T414 279Q414 324 394 348T337 372Q303 372 279 352T242 295T228 213Q228 168 249 144T306 120Z" />
<glyph unicode="q" horiz-adv-x="620" d="M411 -189Q369 -189 350 -162T338 -86L364 79H374Q346 36 303 13T210 -11Q154 -11 113 15T50 89T27 203Q27 290 58 358T145 464T277 503Q329 503 369 480T426 411L416 370L422 413Q429 457 452 479T520 501Q561 501 580
474T593 398L514 -100Q507 -145 481 -167T411 -189ZM284 120Q318 120 342 141T379 197T392 279Q392 324 372 348T315 372Q281 372 257 352T219 296T206 213Q206 168 227 144T284 120Z" />
<glyph unicode="r" horiz-adv-x="434" d="M101 -9Q59 -9 40 17T27 90L78 417Q85 459 110 480T178 501Q220 501 239 476T250 402L245 371H236Q254 430 298 465T401 503Q433 504 447 491T461 445Q461 398 440 376T374 349L337 345Q285 340 263 315T231 237L206 76Q199
33 173 12T101 -9Z" />
<glyph unicode="s" horiz-adv-x="496" d="M229 -11Q183 -11 139 -3T63 17Q36 27 25 45T14 83T26 118T56 139T101 136Q132 123 165 116T228 109Q267 109 285 121T303 151Q303 165 294 172T262 183L173 198Q111 208 78 242T44 328Q44 374 71 414T153 478T290 503Q320
503 356 497T423 478Q450 468 461 451T472 414T459 381T428 360T383 363Q360 373 333 378T280 384Q239 384 220 372T201 339Q201 328 208 320T234 309L323 295Q392 283 426 249T460 164Q460 78 397 34T229 -11Z" />
<glyph unicode="t" horiz-adv-x="426" d="M282 -11Q206 -11 158 16T92 91T82 201L108 361H86Q53 361 35 375T16 417Q16 453 39 472T104 492H129L140 562Q147 603 171 623T236 644Q282 644 302 619T315 547L307 492H379Q412 492 431 479T450 437Q450 405 429 383T370
361H286L261 208Q255 167 271 150T318 132Q333 132 343 134T365 137Q384 137 392 127T401 88Q401 39 384 20T341 -5Q327 -8 312 -9T282 -11Z" />
<glyph unicode="u" horiz-adv-x="601" d="M189 -11Q137 -11 100 11T47 80T42 201L77 419Q84 461 108 481T173 501Q219 501 239 476T253 404L221 204Q216 165 227 145T270 125Q309 125 335 153T369 231L399 419Q406 461 430 481T495 501Q540 501 560 476T574 404L522
73Q509 -9 426 -9Q384 -9 365 12T353 81L361 135L360 91Q333 39 289 14T189 -11Z" />
<glyph unicode="v" horiz-adv-x="541" d="M239 -9Q197 -9 173 10T137 69L50 383Q40 418 47 444T76 486T129 501Q165 501 184 484T213 422L271 170H237L389 439Q408 474 429 487T485 501Q519 501 537 487T558 449T543 397L336 53Q316 20 292 6T239 -9Z" />
<glyph unicode="w" horiz-adv-x="868" d="M227 -9Q193 -9 170 9T136 69L54 383Q45 418 52 444T80 486T132 501Q165 501 182 485T210 425L265 178H241L389 454Q402 479 420 490T465 501Q493 501 509 487T532 443L589 178H572L710 434Q730 472 751 486T808 501Q841
501 859 487T879 449T865 397L668 53Q650 21 625 6T565 -9Q530 -9 507 10T473 69L408 335H481L331 56Q312 22 288 7T227 -9Z" />
<glyph unicode="x" horiz-adv-x="572" d="M92 -9Q56 -9 36 9T17 55T44 109L214 285L213 214L101 385Q82 414 85 440T110 484T163 501Q196 501 217 488T257 447L325 335H276L381 455Q403 480 422 490T473 501Q509 501 528 483T546 438T520 384L360 214L361 293L486
109Q506 80 502 53T476 9T422 -9Q395 -9 371 4T330 45L250 170L308 169L183 37Q160 13 141 2T92 -9Z" />
<glyph unicode="y" horiz-adv-x="541" d="M130 -189Q97 -189 79 -175T59 -136T73 -85L168 69L158 -3L50 383Q40 418 47 444T76 486T129 501Q165 501 184 484T213 422L271 170H237L389 439Q408 473 429 487T485 501Q518 501 537 487T558 449T543 397L227 -126Q207
-160 186 -174T130 -189Z" />
<glyph unicode="z" horiz-adv-x="487" d="M86 0Q56 0 37 12T11 44T11 87T40 132L310 401L315 361H130Q97 361 79 375T61 414Q61 450 82 471T139 492H410Q441 492 459 480T484 448T484 403T452 356L180 85L175 131H376Q446 131 446 77Q446 42 425 21T368 0H86Z" />
<glyph unicode="{" horiz-adv-x="438" d="M243 -180Q189 -180 154 -161T103 -109T94 -36L119 117Q126 160 116 174T76 193Q54 196 42 211T30 247Q30 283 45 305T88 330Q125 333 141 349T165 404L189 559Q201 635 241 670T342 705H422Q459 705 475 688T492 640Q492
610 473 592T422 574H406Q390 574 378 565T362 531L339 383Q334 347 314 320T268 277T219 261L218 265Q241 265 262 249T294 204T300 139L277 -8Q273 -33 282 -41T310 -49H323Q344 -49 357 -64T371 -107Q371 -143 354 -161T303 -180H243Z" />
<glyph unicode="|" horiz-adv-x="316" d="M90 -189Q48 -189 29 -162T17 -86L129 625Q136 670 162 692T232 714Q274 714 293 687T305 611L193 -100Q179 -189 90 -189Z" />
<glyph unicode="}" horiz-adv-x="438" d="M21 -180Q-16 -180 -32 -163T-49 -115Q-49 -84 -30 -67T21 -49H37Q53 -49 65 -40T81 -6L104 142Q110 179 130 206T176 248T224 264L225 260Q203 260 182 276T149 321T143 386L166 533Q170 558 161 566T133 574H120Q100
574 86 589T72 632Q72 668 89 686T140 705H200Q255 705 290 686T340 635T349 561L324 408Q317 365 327 351T367 332Q390 329 401 315T413 278Q413 242 398 220T355 195Q318 193 302 177T278 121L254 -34Q242 -109 202 -144T101 -180H21Z" />
<glyph unicode="~" horiz-adv-x="600" d="M414 199Q383 199 352 211T293 236Q269 247 248 255T211 263Q196 263 183 257T158 238Q142 219 122 218T87 227T67 258T77 301Q100 338 131 357T199 376Q231 376 262 363T322 338Q346 328 366 320T401 312Q417 312 430
318T454 337Q470 356 490 357T525 347T545 316T536 274Q512 238 482 219T414 199Z" />
<glyph unicode="&#xa0;" horiz-adv-x="286" />
<glyph unicode="&#xa1;" horiz-adv-x="272" d="M75 -189Q23 -189 -1 -156T-8 -67L70 207Q79 234 94 247T134 260Q162 260 175 244T188 192L181 -81Q180 -133 153 -161T75 -189ZM163 304Q117 304 91 331T64 401Q64 445 90 471T163 498Q209 498 235 472T261 401Q261
359 235 332T163 304Z" />
<glyph unicode="&#xa2;" horiz-adv-x="600" d="M261 -124Q230 -124 212 -107T199 -53L214 36L238 8Q183 21 146 51T90 124T71 219Q71 268 86 313T131 397T208 460T316 493L279 453L296 564Q301 590 320 605T371 621Q399 621 419 605T433 552L419 464L394 496Q421
496 447 491T495 476Q520 467 531 449T542 410T529 374T499 350T455 351Q438 357 421 360T384 364Q348 364 323 352T283 318T260 272T253 222Q253 184 277 158T358 131Q371 131 390 134T427 145Q448 153 464 145T490 119T499 81T486 43T449 17Q418 6 382 2T316
-2L350 26L336 -66Q331 -95 312 -109T261 -124Z" />
<glyph unicode="&#xa3;" horiz-adv-x="600" d="M87 0Q45 0 24 18T3 65Q3 105 29 126T98 147H137L83 108L120 339L153 300H102Q72 300 59 313T46 345Q46 372 64 389T109 407H151L123 356L142 481Q155 560 189 611T281 689T422 716Q463 716 507 707T586 677Q611
664 621 644T628 602T611 564T577 543T532 548Q500 563 477 568T433 574Q384 574 359 551T327 488L309 377L295 407H408Q438 407 451 394T464 361Q464 334 446 317T400 300H297L273 147H469Q512 147 533 129T554 82Q554 47 528 24T459 0H87Z" />
<glyph unicode="&#xa4;" horiz-adv-x="600" d="M48 -13Q35 0 35 17T48 48L99 101Q79 132 67 168T55 245Q55 286 67 322T99 390L48 442Q35 455 35 472T48 503Q61 516 79 516T110 503L161 451Q191 471 226 482T298 493Q336 493 371 483T434 451L485 503Q498 516
517 517T551 504Q566 490 566 471T552 438L499 385Q520 355 530 320T540 245Q540 206 529 170T498 103L551 48Q564 35 564 18T551 -13Q539 -25 522 -25T491 -11L439 42Q409 20 374 9T298 -3Q260 -3 225 8T160 40L109 -12Q96 -25 79 -25T48 -13ZM299 134Q327 134
350 149T388 190T402 245Q402 276 388 301T351 341T299 356Q270 357 246 342T208 301T194 245Q194 215 208 190T245 150T299 134Z" />
<glyph unicode="&#xa5;" horiz-adv-x="600" d="M259 -9Q216 -9 196 19T184 98L192 149H107Q79 149 62 162T44 198Q44 223 61 237T100 252H209L218 309H133Q104 309 87 322T70 358Q70 383 86 397T126 412H205L202 389L98 594Q83 625 89 652T117 697T174 714Q204
714 221 701T256 650L344 458H307L464 661Q486 692 505 703T552 714Q586 714 607 696T631 650T614 597L443 389L446 412H503Q531 412 548 399T565 362Q565 338 549 324T509 309H401L392 252H477Q506 252 523 239T540 202Q540 178 524 164T484 149H376L365 82Q350
-9 259 -9Z" />
<glyph unicode="&#xa6;" horiz-adv-x="316" d="M177 362Q135 362 116 389T104 466L129 625Q136 670 162 692T232 714Q274 714 293 687T305 611L280 451Q265 362 177 362ZM90 -189Q48 -189 29 -162T17 -86L42 74Q49 119 75 141T145 163Q187 163 206 136T218 60L193
-100Q179 -189 90 -189Z" />
<glyph unicode="&#xa7;" horiz-adv-x="599" d="M244 -191Q196 -191 148 -181T54 -149Q29 -138 19 -120T12 -83T28 -50T60 -31T103 -37Q135 -53 170 -62T238 -71Q264 -71 283 -64T312 -43T323 -8Q323 14 312 28T275 56L144 125Q108 144 84 168T48 221T36 280Q36
340 62 379T139 448L134 433Q124 450 119 469T113 512Q113 578 147 623T237 692T361 716Q405 716 447 708T535 679Q561 667 570 650T577 614T560 581T526 563T481 569Q453 582 423 589T365 596Q341 596 322 589T293 568T282 532Q282 511 293 496T330 467L460 398Q497
379 521 355T557 302T569 243Q569 185 542 144T463 73L467 97Q479 79 485 59T491 15Q491 -53 458 -99T368 -168T244 -191ZM191 313Q191 291 206 272T248 239L369 177Q382 170 391 164T409 150L391 147Q403 164 408 180T414 211Q414 233 399 252T356 285L235 347Q223
354 214 360T196 375L217 384Q202 365 197 347T191 313Z" />
<glyph unicode="&#xa8;" horiz-adv-x="567" d="M440 577Q407 577 389 593T371 639Q371 682 395 709T464 737Q498 737 515 721T533 676Q533 632 510 605T440 577ZM234 577Q200 577 182 593T164 639Q164 682 188 709T258 737Q292 737 309 721T327 676Q327 632 303
605T234 577Z" />
<glyph unicode="&#xa9;" horiz-adv-x="815" d="M425 -11Q347 -11 281 16T166 93T89 209T61 353Q61 430 88 496T165 612T281 688T425 716Q502 716 568 689T684 612T760 497T788 353Q788 276 761 210T684 94T569 17T425 -11ZM425 53Q489 53 543 75T637 139T698 234T720
353Q720 417 699 471T637 566T543 629T425 652Q360 652 306 630T212 567T151 472T129 353Q129 289 150 235T212 139T306 76T425 53ZM448 137Q344 137 283 195T221 353Q221 453 282 510T448 568Q473 568 497 564T549 548Q569 540 578 525T588 492T580 460T558 439T523
442Q507 449 493 452T463 456Q419 456 394 429T368 353Q368 304 393 277T463 250Q479 250 493 253T524 263Q549 273 566 263T590 232T589 192T558 160Q532 148 504 143T448 137Z" />
<glyph unicode="&#xaa;" horiz-adv-x="354" d="M161 404Q116 404 86 433T56 499Q56 546 103 569T237 592H288L280 537H237Q204 537 185 530T166 506Q166 493 175 484T202 475Q219 475 232 482T253 500T264 526L275 594Q279 615 268 625T230 636Q215 636 195 634T158
626Q137 621 123 629T106 651T110 680T140 702Q161 709 187 712T242 716Q299 716 331 696T375 642T380 568L361 452Q353 404 307 404Q278 404 267 419T259 455L261 467H258Q239 435 215 420T161 404Z" />
<glyph unicode="&#xab;" horiz-adv-x="558" d="M200 82Q167 67 140 78T99 120L60 207Q47 236 50 265T76 323L170 437Q187 458 211 462T259 456Q285 442 288 415T264 347L203 260L231 167Q239 137 232 115T200 82ZM438 82Q405 67 378 78T337 120L298 207Q285 236
288 265T314 323L408 437Q425 458 449 462T497 456Q523 442 526 415T502 347L441 260L469 167Q477 137 470 115T438 82Z" />
<glyph unicode="&#xac;" horiz-adv-x="600" d="M465 120Q435 120 421 138T411 189L433 327H131Q101 327 85 340T69 376Q69 408 87 427T139 446H474Q522 446 544 420T559 346L533 178Q524 120 465 120Z" />
<glyph unicode="&#xad;" horiz-adv-x="445" d="M136 199Q98 199 78 214T58 257Q58 292 77 314T131 337H318Q356 337 376 324T396 280Q396 245 377 222T322 199H136Z" />
<glyph unicode="&#xae;" horiz-adv-x="815" d="M425 -11Q347 -11 281 16T166 93T89 209T61 353Q61 430 88 496T165 612T281 688T425 716Q502 716 568 689T684 612T760 497T788 353Q788 276 761 210T684 94T569 17T425 -11ZM425 53Q489 53 543 75T637 139T698 234T720
353Q720 417 699 471T637 566T543 629T425 652Q360 652 306 630T212 567T151 472T129 353Q129 289 150 235T212 139T306 76T425 53ZM322 136Q257 136 257 203V488Q257 525 276 545T334 566H454Q527 566 567 529T607 438Q607 380 569 349T462 318L496 330Q530 330
550 314T583 249L593 213Q603 173 583 155T527 136Q503 136 488 150T467 188L449 261Q445 279 435 285T411 292H369L388 304V203Q388 136 322 136ZM387 386H435Q459 386 471 396T483 429Q483 452 471 462T435 472H387V386Z" />
<glyph unicode="&#xaf;" horiz-adv-x="556" d="M216 605Q164 605 164 646Q164 671 179 686T223 702H469Q521 702 521 662Q521 637 506 621T463 605H216Z" />
<glyph unicode="&#xb0;" horiz-adv-x="389" d="M242 386Q194 386 157 407T97 465T75 548Q75 595 97 631T157 689T243 710Q290 710 327 689T387 632T409 548Q409 502 388 465T328 407T242 386ZM242 477Q271 477 290 497T310 548Q310 578 291 598T242 619Q213 619
194 599T175 548Q175 518 194 498T242 477Z" />
<glyph unicode="&#xb1;" horiz-adv-x="600" d="M288 144Q257 144 242 161T233 213L244 283H124Q94 283 78 296T62 332Q62 364 80 383T132 403H264L275 483Q280 512 297 527T344 542Q373 542 387 523T397 472L387 403H507Q537 403 553 390T569 353Q569 322 551
303T499 283H368L355 203Q350 173 334 159T288 144ZM79 0Q48 0 33 13T17 49Q17 80 35 99T87 119H462Q493 119 508 106T524 70Q524 38 506 19T454 0H79Z" />
<glyph unicode="&#xb2;" horiz-adv-x="380" d="M114 282Q83 282 67 297T51 337Q51 359 59 373T86 404L205 506Q225 523 234 539T244 569Q245 582 235 589T209 597Q195 597 183 594T156 586Q135 578 120 588T98 618T100 657T133 688Q162 700 190 704T247 709Q295
709 328 692T377 648T394 588Q394 546 372 514T293 438L197 360L196 395H318Q378 395 378 350Q378 319 360 301T310 282H114Z" />
<glyph unicode="&#xb3;" horiz-adv-x="380" d="M200 276Q169 276 134 283T70 304Q49 314 44 332T46 369T71 397T111 397Q130 388 151 385T190 382Q219 382 232 390T246 417Q246 431 237 437T204 443H179Q156 443 140 453T124 485Q124 511 140 528T186 545H211Q235
545 248 552T262 576Q262 590 251 596T216 603Q197 603 181 600T151 591Q127 583 110 592T88 620T91 657T125 686Q148 696 178 702T238 708Q309 708 352 680T395 605Q397 565 367 534T290 495V504Q330 497 353 471T378 407Q378 369 355 340T292 293T200 276Z" />
<glyph unicode="&#xb4;" horiz-adv-x="393" d="M245 563Q228 544 209 543T175 551T156 581T166 621L248 751Q263 775 284 781T324 781T356 757T369 721T350 679L245 563Z" />
<glyph unicode="&#xb5;" horiz-adv-x="600" d="M71 -189Q29 -189 10 -163T-3 -89L78 418Q85 461 110 481T178 501Q221 501 241 476T253 401L222 204Q217 165 228 145T271 125Q310 125 336 153T370 231L399 416Q406 459 431 480T500 501Q543 501 562 476T575 401L523
76Q511 -9 424 -9Q387 -9 365 11T347 61L352 90H351Q336 41 312 15T254 -11Q229 -11 210 -1T182 29H180L167 -100Q163 -145 139 -167T71 -189Z" />
<glyph unicode="&#xb6;" horiz-adv-x="667" d="M246 -189Q217 -189 204 -170T196 -118L255 248Q194 248 150 274T82 345T58 447Q58 525 90 583T180 673T317 705H586Q629 705 649 682T662 616L543 -128Q535 -189 473 -189Q444 -189 431 -170T423 -118L534 583H430L317
-128Q308 -189 246 -189Z" />
<glyph unicode="&#xb7;" horiz-adv-x="272" d="M140 172Q95 172 69 199T42 269Q42 312 68 338T140 365Q187 365 212 339T238 269Q238 226 213 199T140 172Z" />
<glyph unicode="&#xb8;" horiz-adv-x="439" d="M148 -198Q127 -198 109 -196T70 -189Q50 -184 43 -170T39 -141T56 -117T89 -115Q100 -119 112 -120T136 -122Q163 -122 175 -117T187 -99Q187 -92 180 -88T153 -83Q148 -83 143 -83T130 -85Q121 -86 115 -86T104
-80Q100 -75 100 -69T101 -55L124 20H208L184 -57L145 -40Q156 -35 168 -33T191 -31Q236 -31 259 -49T283 -100Q283 -145 245 -171T148 -198Z" />
<glyph unicode="&#xb9;" horiz-adv-x="380" d="M111 282Q51 282 51 329Q51 359 69 377T119 395H172L202 588L278 585L178 537Q147 522 125 531T93 561T92 605T130 642L226 688Q245 697 262 703T299 709Q322 709 334 701T350 678T351 643L312 395H323Q383 395 383
349Q383 319 365 301T315 282H111Z" />
<glyph unicode="&#xba;" horiz-adv-x="370" d="M230 407Q182 407 145 425T87 475T66 553Q66 603 89 640T152 696T240 716Q287 716 324 699T383 649T405 571Q405 521 382 484T319 427T230 407ZM231 490Q258 490 275 510T292 572Q292 602 278 618T239 634Q213 634
196 615T179 552Q179 521 193 506T231 490Z" />
<glyph unicode="&#xbb;" horiz-adv-x="558" d="M67 79Q42 92 38 119T62 187L123 275L95 368Q87 397 94 419T125 452Q159 467 186 456T227 414L266 328Q279 299 276 270T250 211L156 97Q139 76 115 72T67 79ZM305 79Q280 92 276 119T300 187L361 275L333 368Q325
397 332 419T363 452Q397 467 424 456T465 414L504 328Q517 299 514 270T488 211L394 97Q377 76 353 72T305 79Z" />
<glyph unicode="&#xbc;" horiz-adv-x="934" d="M111 282Q51 282 51 329Q51 359 69 377T119 395H172L202 588L278 585L178 537Q147 522 125 531T93 561T92 605T130 642L226 688Q245 697 262 703T299 709Q322 709 334 701T350 678T351 643L312 395H323Q383 395 383
349Q383 319 365 301T315 282H111ZM341 11Q326 -9 307 -15T270 -15T240 5T227 38T242 79L695 694Q710 714 729 720T766 721T796 701T808 667T793 626L341 11ZM772 -4Q742 -4 727 9T716 46L719 61H608Q578 61 560 72T541 109Q541 131 550 146T569 173L748 381Q768
405 789 417T839 429Q872 429 886 412T895 361L864 165H873Q888 165 900 154T912 122Q912 99 899 80T858 61H848L845 46Q841 24 822 10T772 -4ZM740 165L760 293H779L661 152L657 165H740Z" />
<glyph unicode="&#xbd;" horiz-adv-x="987" d="M111 282Q51 282 51 329Q51 359 69 377T119 395H172L202 588L278 585L178 537Q147 522 125 531T93 561T92 605T130 642L226 688Q245 697 262 703T299 709Q322 709 334 701T350 678T351 643L312 395H323Q383 395 383
349Q383 319 365 301T315 282H111ZM341 11Q326 -9 307 -15T270 -15T240 5T227 38T242 79L695 694Q710 714 729 720T766 721T796 701T808 667T793 626L341 11ZM676 0Q645 0 629 15T613 55Q613 77 621 91T648 122L767 224Q787 241 796 257T806 287Q807 300 797 307T771
315Q757 315 745 312T718 304Q697 296 682 306T660 336T662 375T695 406Q724 418 752 422T809 427Q857 427 890 410T939 366T956 306Q956 264 934 232T855 156L759 78L758 113H880Q940 113 940 68Q940 37 922 19T872 0H676Z" />
<glyph unicode="&#xbe;" horiz-adv-x="934" d="M200 276Q169 276 134 283T70 304Q49 314 44 332T46 369T71 397T111 397Q130 388 151 385T190 382Q219 382 232 390T246 417Q246 431 237 437T204 443H179Q156 443 140 453T124 485Q124 511 140 528T186 545H211Q235
545 248 552T262 576Q262 590 251 596T216 603Q197 603 181 600T151 591Q127 583 110 592T88 620T91 657T125 686Q148 696 178 702T238 708Q309 708 352 680T395 605Q397 565 367 534T290 495V504Q330 497 353 471T378 407Q378 369 355 340T292 293T200 276ZM341
11Q326 -9 307 -15T270 -15T240 5T227 38T242 79L695 694Q710 714 729 720T766 721T796 701T808 667T793 626L341 11ZM772 -4Q742 -4 727 9T716 46L719 61H608Q578 61 560 72T541 109Q541 131 550 146T569 173L748 381Q768 405 789 417T839 429Q872 429 886 412T895
361L864 165H873Q888 165 900 154T912 122Q912 99 899 80T858 61H848L845 46Q841 24 822 10T772 -4ZM740 165L760 293H779L661 152L657 165H740Z" />
<glyph unicode="&#xbf;" horiz-adv-x="478" d="M170 -191Q106 -191 60 -171T-12 -116T-37 -39Q-37 17 -7 57T77 126Q111 144 131 159T161 191T177 225Q181 240 192 249T229 259Q259 259 273 242T282 192Q279 172 271 152T245 112T198 72Q170 55 157 39T143 1Q143
-17 158 -28T202 -40Q230 -40 254 -36T308 -18Q339 -5 361 -11T396 -34T410 -74T398 -118T359 -152Q313 -174 264 -182T170 -191ZM264 304Q218 304 192 331T165 401Q165 445 191 471T264 498Q310 498 335 472T361 401Q361 359 336 332T264 304Z" />
<glyph unicode="&#xc0;" horiz-adv-x="763" d="M67 -9Q34 -9 13 5T-13 43T1 96L349 653Q369 686 392 700T453 714Q490 714 514 696T549 639L714 99Q725 64 718 40T691 3T643 -9Q603 -9 583 9T550 70L522 180L573 143H173L235 176L156 42Q142 17 120 4T67 -9ZM433
513L278 251L256 284H536L505 247L435 513H433ZM392 776L324 852Q304 873 304 894T318 931T351 954T392 954T429 921L479 838Q492 817 487 798T466 767T429 756T392 776Z" />
<glyph unicode="&#xc1;" horiz-adv-x="763" d="M67 -9Q34 -9 13 5T-13 43T1 96L349 653Q369 686 392 700T453 714Q490 714 514 696T549 639L714 99Q725 64 718 40T691 3T643 -9Q603 -9 583 9T550 70L522 180L573 143H173L235 176L156 42Q142 17 120 4T67 -9ZM433
513L278 251L256 284H536L505 247L435 513H433ZM531 772Q513 755 494 755T460 767T442 796T452 834L521 927Q538 950 559 955T600 954T632 932T643 896T620 856L531 772Z" />
<glyph unicode="&#xc2;" horiz-adv-x="763" d="M67 -9Q34 -9 13 5T-13 43T1 96L349 653Q369 686 392 700T453 714Q490 714 514 696T549 639L714 99Q725 64 718 40T691 3T643 -9Q603 -9 583 9T550 70L522 180L573 143H173L235 176L156 42Q142 17 120 4T67 -9ZM433
513L278 251L256 284H536L505 247L435 513H433ZM385 773Q369 756 349 755T314 764T296 790T307 825L370 903Q393 931 419 944T477 958Q510 958 533 942T574 895L616 829Q631 806 625 788T601 761T562 756T523 781L466 851L385 773Z" />
<glyph unicode="&#xc3;" horiz-adv-x="763" d="M67 -9Q34 -9 13 5T-13 43T1 96L349 653Q369 686 392 700T453 714Q490 714 514 696T549 639L714 99Q725 64 718 40T691 3T643 -9Q603 -9 583 9T550 70L522 180L573 143H173L235 176L156 42Q142 17 120 4T67 -9ZM433
513L278 251L256 284H536L505 247L435 513H433ZM259 757Q240 758 231 772T229 812Q248 871 287 900T378 930Q406 930 430 922T477 903T519 884T559 876Q577 876 591 882T615 904Q628 921 639 930T671 938Q691 937 700 923T701 883Q683 825 644 795T552 765Q524
765 500 773T454 791T412 810T372 818Q354 818 339 812T315 790Q303 774 292 765T259 757Z" />
<glyph unicode="&#xc4;" horiz-adv-x="763" d="M67 -9Q34 -9 13 5T-13 43T1 96L349 653Q369 686 392 700T453 714Q490 714 514 696T549 639L714 99Q725 64 718 40T691 3T643 -9Q603 -9 583 9T550 70L522 180L573 143H173L235 176L156 42Q142 17 120 4T67 -9ZM433
513L278 251L256 284H536L505 247L435 513H433ZM565 766Q532 766 514 782T496 828Q496 871 520 898T589 926Q623 926 641 910T659 864Q659 821 635 794T565 766ZM358 766Q326 766 308 782T289 828Q289 871 313 898T383 926Q417 926 434 910T452 864Q452 821 428
794T358 766Z" />
<glyph unicode="&#xc5;" horiz-adv-x="763" d="M67 -9Q34 -9 13 5T-13 43T1 96L349 653Q369 686 392 700T453 714Q490 714 514 696T549 639L714 99Q725 64 718 40T691 3T643 -9Q603 -9 583 9T550 70L522 180L573 143H173L235 176L156 42Q142 17 120 4T67 -9ZM433
513L278 251L256 284H536L505 247L435 513H433ZM472 752Q435 752 404 769T356 816T338 882Q338 920 355 949T404 996T472 1013Q511 1013 541 996T589 950T607 882Q607 846 590 816T542 769T472 752ZM472 825Q497 825 513 841T529 882Q529 907 513 923T472 939Q448
939 432 923T416 882Q416 858 432 842T472 825Z" />
<glyph unicode="&#xc6;" horiz-adv-x="1006" d="M37 -9Q0 -9 -18 9T-37 52T-20 100L425 659Q444 684 467 694T521 705H951Q987 705 1006 690T1026 647Q1026 608 1003 586T941 563H580L635 603L649 378L594 429H884Q920 429 939 414T959 371Q959 332 937 310T875
287H603L651 338L666 93L611 142H862Q898 142 917 127T937 84Q937 45 915 23T852 0H591Q514 0 509 76L502 197L550 143H169L243 190L126 35Q109 12 88 2T37 -9ZM481 507L279 240L277 284H543L500 233L483 507H481Z" />
<glyph unicode="&#xc7;" horiz-adv-x="688" d="M405 -11Q307 -11 230 25T108 134T63 313Q63 398 89 471T165 599T290 685T462 716Q507 716 555 706T646 673Q673 659 682 637T687 590T668 547T632 520T585 523Q548 541 518 548T458 556Q391 556 347 525T280 440T257
320Q257 262 275 224T330 167T427 149Q453 149 480 155T536 174Q564 186 586 179T622 153T637 111T628 65T589 30Q549 9 498 -1T405 -11ZM351 -198Q330 -198 312 -196T273 -189Q253 -184 246 -170T242 -141T259 -117T292 -115Q303 -119 315 -120T339 -122Q366 -122
378 -117T390 -99Q390 -92 383 -88T356 -83Q351 -83 346 -83T333 -85Q324 -86 318 -86T307 -80Q303 -75 303 -69T304 -55L327 20H411L387 -57L348 -40Q359 -35 371 -33T394 -31Q439 -31 462 -49T486 -100Q486 -145 448 -171T351 -198Z" />
<glyph unicode="&#xc8;" horiz-adv-x="614" d="M130 0Q80 0 57 26T42 102L123 617Q130 661 156 683T226 705H560Q596 705 615 690T634 647Q634 608 612 586T550 563H290L269 429H494Q530 429 549 414T568 371Q568 332 545 310T484 287H246L223 142H470Q506 142
525 127T544 84Q544 45 522 23T461 0H130ZM344 776L276 852Q256 873 256 894T270 931T303 954T344 954T381 921L431 838Q444 817 439 798T418 767T381 756T344 776Z" />
<glyph unicode="&#xc9;" horiz-adv-x="614" d="M130 0Q80 0 57 26T42 102L123 617Q130 661 156 683T226 705H560Q596 705 615 690T634 647Q634 608 612 586T550 563H290L269 429H494Q530 429 549 414T568 371Q568 332 545 310T484 287H246L223 142H470Q506 142
525 127T544 84Q544 45 522 23T461 0H130ZM483 772Q465 755 446 755T412 767T394 796T404 834L473 927Q490 950 511 955T552 954T584 932T595 896T572 856L483 772Z" />
<glyph unicode="&#xca;" horiz-adv-x="614" d="M130 0Q80 0 57 26T42 102L123 617Q130 661 156 683T226 705H560Q596 705 615 690T634 647Q634 608 612 586T550 563H290L269 429H494Q530 429 549 414T568 371Q568 332 545 310T484 287H246L223 142H470Q506 142
525 127T544 84Q544 45 522 23T461 0H130ZM337 773Q321 756 301 755T266 764T248 790T259 825L322 903Q345 931 371 944T429 958Q462 958 485 942T526 895L568 829Q583 806 577 788T553 761T514 756T475 781L418 851L337 773Z" />
<glyph unicode="&#xcb;" horiz-adv-x="614" d="M130 0Q80 0 57 26T42 102L123 617Q130 661 156 683T226 705H560Q596 705 615 690T634 647Q634 608 612 586T550 563H290L269 429H494Q530 429 549 414T568 371Q568 332 545 310T484 287H246L223 142H470Q506 142
525 127T544 84Q544 45 522 23T461 0H130ZM517 766Q484 766 466 782T448 828Q448 871 472 898T541 926Q575 926 593 910T611 864Q611 821 587 794T517 766ZM310 766Q278 766 260 782T241 828Q241 871 265 898T335 926Q369 926 386 910T404 864Q404 821 380 794T310
766Z" />
<glyph unicode="&#xcc;" horiz-adv-x="312" d="M119 -9Q72 -9 53 19T41 99L124 623Q131 669 157 691T229 714Q275 714 294 686T305 606L222 83Q215 36 190 14T119 -9ZM168 776L100 852Q80 873 80 894T94 931T127 954T168 954T205 921L255 838Q268 817 263 798T242
767T205 756T168 776Z" />
<glyph unicode="&#xcd;" horiz-adv-x="312" d="M119 -9Q72 -9 53 19T41 99L124 623Q131 669 157 691T229 714Q275 714 294 686T305 606L222 83Q215 36 190 14T119 -9ZM307 772Q289 755 270 755T236 767T218 796T228 834L297 927Q314 950 335 955T376 954T408 932T419
896T396 856L307 772Z" />
<glyph unicode="&#xce;" horiz-adv-x="312" d="M119 -9Q72 -9 53 19T41 99L124 623Q131 669 157 691T229 714Q275 714 294 686T305 606L222 83Q215 36 190 14T119 -9ZM161 773Q145 756 125 755T90 764T72 790T83 825L146 903Q169 931 195 944T253 958Q286 958
309 942T350 895L392 829Q407 806 401 788T377 761T338 756T299 781L242 851L161 773Z" />
<glyph unicode="&#xcf;" horiz-adv-x="312" d="M119 -9Q72 -9 53 19T41 99L124 623Q131 669 157 691T229 714Q275 714 294 686T305 606L222 83Q215 36 190 14T119 -9ZM341 766Q308 766 290 782T272 828Q272 871 296 898T365 926Q399 926 417 910T435 864Q435 821
411 794T341 766ZM134 766Q102 766 84 782T65 828Q65 871 89 898T159 926Q193 926 210 910T228 864Q228 821 204 794T134 766Z" />
<glyph unicode="&#xd0;" horiz-adv-x="786" d="M129 0Q81 0 58 27T42 102L123 617Q130 661 156 683T226 705H387Q565 705 661 623T758 396Q758 311 732 239T654 113T526 30T349 0H129ZM232 149H351Q405 149 445 166T513 216T553 292T567 393Q567 472 522 514T387
556H297L232 149ZM58 291Q25 291 6 305T-13 344Q-13 380 8 400T66 421H385Q420 421 438 407T457 368Q457 332 436 312T377 291H58Z" />
<glyph unicode="&#xd1;" horiz-adv-x="757" d="M115 -9Q74 -9 53 17T40 91L126 637Q133 676 155 695T210 714Q246 714 264 701T301 658L553 245H522L583 630Q590 673 614 693T681 714Q721 714 740 688T752 614L665 69Q659 30 639 11T586 -9Q551 -9 530 4T489 49L239
460H269L208 75Q201 32 179 12T115 -9ZM255 757Q236 758 227 772T225 812Q244 871 283 900T374 930Q402 930 426 922T473 903T515 884T555 876Q573 876 587 882T611 904Q624 921 635 930T667 938Q687 937 696 923T697 883Q679 825 640 795T548 765Q520 765 496
773T450 791T408 810T368 818Q350 818 335 812T311 790Q299 774 288 765T255 757Z" />
<glyph unicode="&#xd2;" horiz-adv-x="807" d="M396 -11Q295 -11 220 26T104 134T62 305Q62 396 89 471T167 602T288 686T445 716Q547 716 622 679T738 571T779 401Q779 309 752 234T674 103T553 19T396 -11ZM398 143Q459 143 501 175T566 264T589 397Q589 481
550 521T442 562Q383 562 341 530T276 441T253 308Q253 225 292 184T398 143ZM401 776L333 852Q313 873 313 894T327 931T360 954T401 954T438 921L488 838Q501 817 496 798T475 767T438 756T401 776Z" />
<glyph unicode="&#xd3;" horiz-adv-x="807" d="M396 -11Q295 -11 220 26T104 134T62 305Q62 396 89 471T167 602T288 686T445 716Q547 716 622 679T738 571T779 401Q779 309 752 234T674 103T553 19T396 -11ZM398 143Q459 143 501 175T566 264T589 397Q589 481
550 521T442 562Q383 562 341 530T276 441T253 308Q253 225 292 184T398 143ZM540 772Q522 755 503 755T469 767T451 796T461 834L530 927Q547 950 568 955T609 954T641 932T652 896T629 856L540 772Z" />
<glyph unicode="&#xd4;" horiz-adv-x="807" d="M396 -11Q295 -11 220 26T104 134T62 305Q62 396 89 471T167 602T288 686T445 716Q547 716 622 679T738 571T779 401Q779 309 752 234T674 103T553 19T396 -11ZM398 143Q459 143 501 175T566 264T589 397Q589 481
550 521T442 562Q383 562 341 530T276 441T253 308Q253 225 292 184T398 143ZM394 773Q378 756 358 755T323 764T305 790T316 825L379 903Q402 931 428 944T486 958Q519 958 542 942T583 895L625 829Q640 806 634 788T610 761T571 756T532 781L475 851L394 773Z"
/>
<glyph unicode="&#xd5;" horiz-adv-x="807" d="M396 -11Q295 -11 220 26T104 134T62 305Q62 396 89 471T167 602T288 686T445 716Q547 716 622 679T738 571T779 401Q779 309 752 234T674 103T553 19T396 -11ZM398 143Q459 143 501 175T566 264T589 397Q589 481
550 521T442 562Q383 562 341 530T276 441T253 308Q253 225 292 184T398 143ZM268 757Q249 758 240 772T238 812Q257 871 296 900T387 930Q415 930 439 922T486 903T528 884T568 876Q586 876 600 882T624 904Q637 921 648 930T680 938Q700 937 709 923T710 883Q692
825 653 795T561 765Q533 765 509 773T463 791T421 810T381 818Q363 818 348 812T324 790Q312 774 301 765T268 757Z" />
<glyph unicode="&#xd6;" horiz-adv-x="807" d="M396 -11Q295 -11 220 26T104 134T62 305Q62 396 89 471T167 602T288 686T445 716Q547 716 622 679T738 571T779 401Q779 309 752 234T674 103T553 19T396 -11ZM398 143Q459 143 501 175T566 264T589 397Q589 481
550 521T442 562Q383 562 341 530T276 441T253 308Q253 225 292 184T398 143ZM574 766Q541 766 523 782T505 828Q505 871 529 898T598 926Q632 926 650 910T668 864Q668 821 644 794T574 766ZM367 766Q335 766 317 782T298 828Q298 871 322 898T392 926Q426 926
443 910T461 864Q461 821 437 794T367 766Z" />
<glyph unicode="&#xd7;" horiz-adv-x="600" d="M179 88Q155 67 132 69T93 87T77 127T98 172L223 288L118 401Q101 419 100 438T108 473T135 497T171 503T208 481L311 370L435 485Q458 506 481 504T521 486T538 446T516 401L391 285L496 170Q513 152 514 133T506
99T479 75T443 69T406 90L302 203L179 88Z" />
<glyph unicode="&#xd8;" horiz-adv-x="807" d="M396 -11Q295 -11 220 26T104 134T62 305Q62 396 89 471T167 602T288 686T445 716Q547 716 622 679T738 571T779 401Q779 309 752 234T674 103T553 19T396 -11ZM398 143Q459 143 501 175T566 264T589 397Q589 481
550 521T442 562Q383 562 341 530T276 441T253 308Q253 225 292 184T398 143ZM216 -26Q200 -47 180 -52T142 -50T111 -28T98 8T112 50L177 137L243 210L515 569L557 643L623 731Q638 753 658 758T697 756T728 734T741 698T726 656L662 570L596 496L324 138L282
64L216 -26Z" />
<glyph unicode="&#xd9;" horiz-adv-x="748" d="M349 -11Q281 -11 224 9T128 70T74 173T71 318L120 629Q127 672 152 693T220 714Q266 714 287 688T301 613L252 308Q241 230 268 186T364 142Q426 142 464 176T513 281L568 629Q575 672 600 693T668 714Q713 714
733 688T747 614L696 290Q681 193 640 126T528 24T349 -11ZM385 776L317 852Q297 873 297 894T311 931T344 954T385 954T422 921L472 838Q485 817 480 798T459 767T422 756T385 776Z" />
<glyph unicode="&#xda;" horiz-adv-x="748" d="M349 -11Q281 -11 224 9T128 70T74 173T71 318L120 629Q127 672 152 693T220 714Q266 714 287 688T301 613L252 308Q241 230 268 186T364 142Q426 142 464 176T513 281L568 629Q575 672 600 693T668 714Q713 714
733 688T747 614L696 290Q681 193 640 126T528 24T349 -11ZM524 772Q506 755 487 755T453 767T435 796T445 834L514 927Q531 950 552 955T593 954T625 932T636 896T613 856L524 772Z" />
<glyph unicode="&#xdb;" horiz-adv-x="748" d="M349 -11Q281 -11 224 9T128 70T74 173T71 318L120 629Q127 672 152 693T220 714Q266 714 287 688T301 613L252 308Q241 230 268 186T364 142Q426 142 464 176T513 281L568 629Q575 672 600 693T668 714Q713 714
733 688T747 614L696 290Q681 193 640 126T528 24T349 -11ZM378 773Q362 756 342 755T307 764T289 790T300 825L363 903Q386 931 412 944T470 958Q503 958 526 942T567 895L609 829Q624 806 618 788T594 761T555 756T516 781L459 851L378 773Z" />
<glyph unicode="&#xdc;" horiz-adv-x="748" d="M349 -11Q281 -11 224 9T128 70T74 173T71 318L120 629Q127 672 152 693T220 714Q266 714 287 688T301 613L252 308Q241 230 268 186T364 142Q426 142 464 176T513 281L568 629Q575 672 600 693T668 714Q713 714
733 688T747 614L696 290Q681 193 640 126T528 24T349 -11ZM558 766Q525 766 507 782T489 828Q489 871 513 898T582 926Q616 926 634 910T652 864Q652 821 628 794T558 766ZM351 766Q319 766 301 782T282 828Q282 871 306 898T376 926Q410 926 427 910T445 864Q445
821 421 794T351 766Z" />
<glyph unicode="&#xdd;" horiz-adv-x="645" d="M282 -9Q238 -9 219 19T207 98L249 360L270 259L94 586Q77 619 81 648T108 695T168 714Q199 714 220 700T261 645L363 448H327L500 656Q528 690 549 702T602 714Q638 714 659 694T680 645T656 586L378 259L432 360L388
82Q373 -9 282 -9ZM459 772Q441 755 422 755T388 767T370 796T380 834L449 927Q466 950 487 955T528 954T560 932T571 896T548 856L459 772Z" />
<glyph unicode="&#xde;" horiz-adv-x="679" d="M117 -9Q73 -9 53 19T41 99L123 615Q130 661 157 683T230 706Q272 706 293 685T308 629L303 598H421Q549 598 612 544T676 395Q676 271 601 204T381 136H231L222 82Q215 36 189 14T117 -9ZM253 278H389Q444 278 472
303T501 378Q501 419 476 438T396 457H281L253 278Z" />
<glyph unicode="&#xdf;" horiz-adv-x="700" d="M450 -11Q408 -11 368 -2T294 22Q270 33 261 52T253 91T268 127T299 149T341 144Q372 130 402 124T457 117Q482 117 496 125T511 152Q511 166 496 177T438 203Q376 225 349 256T321 327Q321 358 330 383T359 431T406
479Q425 496 436 512T447 549Q447 565 436 578T395 592Q338 592 307 563T265 468L202 73Q196 32 172 12T106 -9Q62 -9 41 16T27 88L82 439Q104 579 178 647T400 716Q466 716 513 696T586 643T612 570Q612 530 595 500T543 437Q518 413 505 400T486 378T481 360Q481
345 497 334T551 309Q610 289 640 256T671 168Q671 109 642 69T564 9T450 -11Z" />
<glyph unicode="&#xe0;" horiz-adv-x="568" d="M185 -11Q138 -11 100 11T39 68T16 145Q16 197 46 230T137 278T291 294H370L356 210H291Q254 210 231 205T197 188T186 157Q186 133 203 119T247 105Q274 105 293 115T325 144T342 188L360 303Q366 336 346 355T279
374Q251 374 223 369T163 351Q136 342 117 349T87 372T77 408T93 447T139 476Q184 492 225 497T304 503Q395 503 446 470T514 382T521 261L493 79Q486 35 462 13T397 -9Q358 -9 340 14T329 87L336 129L338 96Q323 59 300 35T247 0T185 -11ZM259 572L187 676Q169
702 171 725T189 763T227 782T271 775T306 733L358 618Q368 595 360 577T334 549T296 545T259 572Z" />
<glyph unicode="&#xe1;" horiz-adv-x="568" d="M185 -11Q138 -11 100 11T39 68T16 145Q16 197 46 230T137 278T291 294H370L356 210H291Q254 210 231 205T197 188T186 157Q186 133 203 119T247 105Q274 105 293 115T325 144T342 188L360 303Q366 336 346 355T279
374Q251 374 223 369T163 351Q136 342 117 349T87 372T77 408T93 447T139 476Q184 492 225 497T304 503Q395 503 446 470T514 382T521 261L493 79Q486 35 462 13T397 -9Q358 -9 340 14T329 87L336 129L338 96Q323 59 300 35T247 0T185 -11ZM391 563Q374 544 355
543T321 551T302 581T312 621L394 751Q409 775 430 781T470 781T502 757T515 721T496 679L391 563Z" />
<glyph unicode="&#xe2;" horiz-adv-x="568" d="M185 -11Q138 -11 100 11T39 68T16 145Q16 197 46 230T137 278T291 294H370L356 210H291Q254 210 231 205T197 188T186 157Q186 133 203 119T247 105Q274 105 293 115T325 144T342 188L360 303Q366 336 346 355T279
374Q251 374 223 369T163 351Q136 342 117 349T87 372T77 408T93 447T139 476Q184 492 225 497T304 503Q395 503 446 470T514 382T521 261L493 79Q486 35 462 13T397 -9Q358 -9 340 14T329 87L336 129L338 96Q323 59 300 35T247 0T185 -11ZM480 615Q491 592 483
575T458 549T423 544T392 568L334 670L251 565Q236 547 218 544T184 550T164 576T173 615L241 720Q260 751 285 767T341 784Q374 784 397 768T433 722L480 615Z" />
<glyph unicode="&#xe3;" horiz-adv-x="568" d="M185 -11Q138 -11 100 11T39 68T16 145Q16 197 46 230T137 278T291 294H370L356 210H291Q254 210 231 205T197 188T186 157Q186 133 203 119T247 105Q274 105 293 115T325 144T342 188L360 303Q366 336 346 355T279
374Q251 374 223 369T163 351Q136 342 117 349T87 372T77 408T93 447T139 476Q184 492 225 497T304 503Q395 503 446 470T514 382T521 261L493 79Q486 35 462 13T397 -9Q358 -9 340 14T329 87L336 129L338 96Q323 59 300 35T247 0T185 -11ZM164 574Q144 576 134
588T129 623Q137 653 150 676T181 715T220 739T266 747Q292 747 310 739T344 721T375 702T411 694Q428 694 442 701T463 724Q473 740 484 748T514 755Q534 754 544 742T549 707Q539 667 519 639T472 597T411 582Q386 582 367 590T332 609T301 628T267 636Q251 636
237 628T215 606Q205 590 194 582T164 574Z" />
<glyph unicode="&#xe4;" horiz-adv-x="568" d="M185 -11Q138 -11 100 11T39 68T16 145Q16 197 46 230T137 278T291 294H370L356 210H291Q254 210 231 205T197 188T186 157Q186 133 203 119T247 105Q274 105 293 115T325 144T342 188L360 303Q366 336 346 355T279
374Q251 374 223 369T163 351Q136 342 117 349T87 372T77 408T93 447T139 476Q184 492 225 497T304 503Q395 503 446 470T514 382T521 261L493 79Q486 35 462 13T397 -9Q358 -9 340 14T329 87L336 129L338 96Q323 59 300 35T247 0T185 -11ZM435 577Q402 577 384
593T366 639Q366 682 390 709T459 737Q493 737 510 721T528 676Q528 632 505 605T435 577ZM229 577Q195 577 177 593T159 639Q159 682 183 709T253 737Q287 737 304 721T322 676Q322 632 298 605T229 577Z" />
<glyph unicode="&#xe5;" horiz-adv-x="568" d="M185 -11Q138 -11 100 11T39 68T16 145Q16 197 46 230T137 278T291 294H370L356 210H291Q254 210 231 205T197 188T186 157Q186 133 203 119T247 105Q274 105 293 115T325 144T342 188L360 303Q366 336 346 355T279
374Q251 374 223 369T163 351Q136 342 117 349T87 372T77 408T93 447T139 476Q184 492 225 497T304 503Q395 503 446 470T514 382T521 261L493 79Q486 35 462 13T397 -9Q358 -9 340 14T329 87L336 129L338 96Q323 59 300 35T247 0T185 -11ZM347 545Q309 545 278
562T230 609T212 675Q212 713 229 742T278 788T347 806Q385 806 415 789T464 742T482 675Q482 638 464 609T416 562T347 545ZM347 618Q371 618 387 634T403 675Q403 700 387 716T347 732Q322 732 306 716T290 675Q290 650 306 634T347 618Z" />
<glyph unicode="&#xe6;" horiz-adv-x="870" d="M221 -11Q168 -11 121 5T45 57T16 145Q16 197 46 230T137 278T291 294H370L357 210H292Q255 210 232 205T197 187T186 155Q186 135 202 122T247 108Q273 108 292 117T322 144T337 186L356 301Q361 334 344 354T279
374Q251 374 223 369T163 351Q136 342 117 349T87 372T77 409T93 447T139 476Q184 492 225 497T304 503Q368 503 410 484T477 424H444Q478 464 525 483T626 503Q698 503 743 479T813 416T843 334T844 252L842 239Q840 223 832 217T807 210H488L500 294H720L703
281Q707 311 701 334T675 372T624 386Q594 386 573 372T540 335T522 281L516 242Q506 182 535 151T625 120Q647 120 675 125T726 140Q753 151 771 146T798 124T806 87T792 48T756 19Q721 3 682 -4T605 -11Q524 -11 470 20T391 108H415Q393 47 339 18T221 -11Z"
/>
<glyph unicode="&#xe7;" horiz-adv-x="484" d="M285 -11Q200 -11 143 17T57 98T28 219Q28 275 46 326T102 417T195 480T325 503Q360 503 386 498T439 485Q468 476 480 458T493 418T481 380T453 354T413 354Q393 362 375 365T340 369Q304 369 279 357T239 323T217
275T210 222Q210 177 234 150T314 123Q326 123 344 127T384 139Q403 146 418 138T443 114T453 77T440 40T400 11Q377 0 346 -5T285 -11ZM227 -198Q206 -198 188 -196T149 -189Q129 -184 122 -170T118 -141T135 -117T168 -115Q179 -119 191 -120T215 -122Q242 -122
254 -117T266 -99Q266 -92 259 -88T232 -83Q227 -83 222 -83T209 -85Q200 -86 194 -86T183 -80Q179 -75 179 -69T180 -55L203 20H287L263 -57L224 -40Q235 -35 247 -33T270 -31Q315 -31 338 -49T362 -100Q362 -145 324 -171T227 -198Z" />
<glyph unicode="&#xe8;" horiz-adv-x="555" d="M291 -11Q212 -11 153 17T61 98T28 219Q28 304 65 368T167 467T311 503Q375 503 419 482T490 425T526 344T529 250Q526 225 515 218T486 210H173L185 294H407L391 281Q396 312 389 336T362 373T309 387Q277 387 255
373T220 335T202 281L195 242Q186 183 217 152T311 120Q334 120 362 125T412 140Q439 151 457 145T485 123T493 86T479 48T443 19Q408 3 369 -4T291 -11ZM272 572L200 676Q182 702 184 725T202 763T240 782T284 775T319 733L371 618Q381 595 373 577T347 549T309
545T272 572Z" />
<glyph unicode="&#xe9;" horiz-adv-x="555" d="M291 -11Q212 -11 153 17T61 98T28 219Q28 304 65 368T167 467T311 503Q375 503 419 482T490 425T526 344T529 250Q526 225 515 218T486 210H173L185 294H407L391 281Q396 312 389 336T362 373T309 387Q277 387 255
373T220 335T202 281L195 242Q186 183 217 152T311 120Q334 120 362 125T412 140Q439 151 457 145T485 123T493 86T479 48T443 19Q408 3 369 -4T291 -11ZM404 563Q387 544 368 543T334 551T315 581T325 621L407 751Q422 775 443 781T483 781T515 757T528 721T509
679L404 563Z" />
<glyph unicode="&#xea;" horiz-adv-x="555" d="M291 -11Q212 -11 153 17T61 98T28 219Q28 304 65 368T167 467T311 503Q375 503 419 482T490 425T526 344T529 250Q526 225 515 218T486 210H173L185 294H407L391 281Q396 312 389 336T362 373T309 387Q277 387 255
373T220 335T202 281L195 242Q186 183 217 152T311 120Q334 120 362 125T412 140Q439 151 457 145T485 123T493 86T479 48T443 19Q408 3 369 -4T291 -11ZM493 615Q504 592 496 575T471 549T436 544T405 568L347 670L264 565Q249 547 231 544T197 550T177 576T186
615L254 720Q273 751 298 767T354 784Q387 784 410 768T446 722L493 615Z" />
<glyph unicode="&#xeb;" horiz-adv-x="555" d="M291 -11Q212 -11 153 17T61 98T28 219Q28 304 65 368T167 467T311 503Q375 503 419 482T490 425T526 344T529 250Q526 225 515 218T486 210H173L185 294H407L391 281Q396 312 389 336T362 373T309 387Q277 387 255
373T220 335T202 281L195 242Q186 183 217 152T311 120Q334 120 362 125T412 140Q439 151 457 145T485 123T493 86T479 48T443 19Q408 3 369 -4T291 -11ZM448 577Q415 577 397 593T379 639Q379 682 403 709T472 737Q506 737 523 721T541 676Q541 632 518 605T448
577ZM242 577Q208 577 190 593T172 639Q172 682 196 709T266 737Q300 737 317 721T335 676Q335 632 311 605T242 577Z" />
<glyph unicode="&#xec;" horiz-adv-x="281" d="M100 -9Q58 -9 39 18T27 94L78 413Q85 457 110 479T180 501Q222 501 241 474T253 398L202 79Q196 35 171 13T100 -9ZM121 572L49 676Q31 702 33 725T51 763T89 782T133 775T168 733L220 618Q230 595 222 577T196
549T158 545T121 572Z" />
<glyph unicode="&#xed;" horiz-adv-x="281" d="M100 -9Q58 -9 39 18T27 94L78 413Q85 457 110 479T180 501Q222 501 241 474T253 398L202 79Q196 35 171 13T100 -9ZM253 563Q236 544 217 543T183 551T164 581T174 621L256 751Q271 775 292 781T332 781T364 757T377
721T358 679L253 563Z" />
<glyph unicode="&#xee;" horiz-adv-x="281" d="M100 -9Q58 -9 39 18T27 94L78 413Q85 457 110 479T180 501Q222 501 241 474T253 398L202 79Q196 35 171 13T100 -9ZM342 615Q353 592 345 575T320 549T285 544T254 568L196 670L113 565Q98 547 80 544T46 550T26
576T35 615L103 720Q122 751 147 767T203 784Q236 784 259 768T295 722L342 615Z" />
<glyph unicode="&#xef;" horiz-adv-x="281" d="M100 -9Q58 -9 39 18T27 94L78 413Q85 457 110 479T180 501Q222 501 241 474T253 398L202 79Q196 35 171 13T100 -9ZM297 577Q264 577 246 593T228 639Q228 682 252 709T321 737Q355 737 372 721T390 676Q390 632
367 605T297 577ZM91 577Q57 577 39 593T21 639Q21 682 45 709T115 737Q149 737 166 721T184 676Q184 632 160 605T91 577Z" />
<glyph unicode="&#xf0;" horiz-adv-x="606" d="M273 -11Q201 -11 145 16T57 90T24 199Q24 272 58 328T150 415T282 447Q324 447 359 436T420 400T453 331L426 330Q433 396 404 452T321 547H343L197 482Q178 473 164 480T143 501T141 531T165 555L267 600L257 583Q242
590 225 595T193 605Q163 613 154 632T153 671T183 704T241 709Q282 700 324 684T396 647L376 649L500 706Q520 715 535 708T556 687T558 657T533 632L444 592L450 609Q498 568 527 520T571 421T585 320Q585 247 564 187T503 82T405 13T273 -11ZM290 122Q320 122
342 136T378 177T392 239Q392 274 369 296T305 318Q276 318 253 304T217 263T203 201Q203 165 226 144T290 122Z" />
<glyph unicode="&#xf1;" horiz-adv-x="606" d="M101 -8Q59 -8 40 19T28 96L78 413Q85 457 111 479T180 501Q220 501 240 477T251 406L244 366V407Q270 454 314 478T416 503Q469 503 506 481T559 412T564 291L531 81Q524 37 498 15T428 -8Q386 -8 367 19T355 96L385
288Q392 327 380 347T334 367Q293 367 267 340T232 262L203 81Q189 -8 101 -8ZM184 574Q164 576 154 588T149 623Q157 653 170 676T201 715T240 739T286 747Q312 747 330 739T364 721T395 702T431 694Q448 694 462 701T483 724Q493 740 504 748T534 755Q554 754
564 742T569 707Q559 667 539 639T492 597T431 582Q406 582 387 590T352 609T321 628T287 636Q271 636 257 628T235 606Q225 590 214 582T184 574Z" />
<glyph unicode="&#xf2;" horiz-adv-x="602" d="M282 -11Q201 -11 145 17T59 98T29 219Q29 290 53 343T119 432T213 485T320 503Q400 503 456 475T543 395T573 274Q573 202 549 149T483 60T389 7T282 -11ZM285 120Q319 120 343 140T381 197T394 279Q394 324 374
348T316 372Q283 372 259 352T221 296T208 213Q208 168 228 144T285 120ZM282 572L210 676Q192 702 194 725T212 763T250 782T294 775T329 733L381 618Q391 595 383 577T357 549T319 545T282 572Z" />
<glyph unicode="&#xf3;" horiz-adv-x="602" d="M282 -11Q201 -11 145 17T59 98T29 219Q29 290 53 343T119 432T213 485T320 503Q400 503 456 475T543 395T573 274Q573 202 549 149T483 60T389 7T282 -11ZM285 120Q319 120 343 140T381 197T394 279Q394 324 374
348T316 372Q283 372 259 352T221 296T208 213Q208 168 228 144T285 120ZM414 563Q397 544 378 543T344 551T325 581T335 621L417 751Q432 775 453 781T493 781T525 757T538 721T519 679L414 563Z" />
<glyph unicode="&#xf4;" horiz-adv-x="602" d="M282 -11Q201 -11 145 17T59 98T29 219Q29 290 53 343T119 432T213 485T320 503Q400 503 456 475T543 395T573 274Q573 202 549 149T483 60T389 7T282 -11ZM285 120Q319 120 343 140T381 197T394 279Q394 324 374
348T316 372Q283 372 259 352T221 296T208 213Q208 168 228 144T285 120ZM503 615Q514 592 506 575T481 549T446 544T415 568L357 670L274 565Q259 547 241 544T207 550T187 576T196 615L264 720Q283 751 308 767T364 784Q397 784 420 768T456 722L503 615Z" />
<glyph unicode="&#xf5;" horiz-adv-x="602" d="M282 -11Q201 -11 145 17T59 98T29 219Q29 290 53 343T119 432T213 485T320 503Q400 503 456 475T543 395T573 274Q573 202 549 149T483 60T389 7T282 -11ZM285 120Q319 120 343 140T381 197T394 279Q394 324 374
348T316 372Q283 372 259 352T221 296T208 213Q208 168 228 144T285 120ZM187 574Q167 576 157 588T152 623Q160 653 173 676T204 715T243 739T289 747Q315 747 333 739T367 721T398 702T434 694Q451 694 465 701T486 724Q496 740 507 748T537 755Q557 754 567
742T572 707Q562 667 542 639T495 597T434 582Q409 582 390 590T355 609T324 628T290 636Q274 636 260 628T238 606Q228 590 217 582T187 574Z" />
<glyph unicode="&#xf6;" horiz-adv-x="602" d="M282 -11Q201 -11 145 17T59 98T29 219Q29 290 53 343T119 432T213 485T320 503Q400 503 456 475T543 395T573 274Q573 202 549 149T483 60T389 7T282 -11ZM285 120Q319 120 343 140T381 197T394 279Q394 324 374
348T316 372Q283 372 259 352T221 296T208 213Q208 168 228 144T285 120ZM458 577Q425 577 407 593T389 639Q389 682 413 709T482 737Q516 737 533 721T551 676Q551 632 528 605T458 577ZM252 577Q218 577 200 593T182 639Q182 682 206 709T276 737Q310 737 327
721T345 676Q345 632 321 605T252 577Z" />
<glyph unicode="&#xf7;" horiz-adv-x="600" d="M115 228Q85 228 69 241T53 276Q53 308 71 327T123 346H497Q528 346 544 333T560 298Q560 266 542 247T490 228H115ZM259 23Q231 23 216 37T200 78Q200 114 221 137T281 161Q309 161 324 147T340 108Q340 71 319
47T259 23ZM320 413Q292 413 277 427T261 467Q261 504 282 527T342 551Q370 551 385 537T401 497Q401 461 380 437T320 413Z" />
<glyph unicode="&#xf8;" horiz-adv-x="602" d="M282 -11Q202 -11 146 17T59 98T29 219Q29 290 53 343T119 432T213 485T320 503Q401 503 457 475T543 395T573 274Q573 202 549 149T483 60T389 7T282 -11ZM290 108Q327 108 354 129T397 189T413 282Q413 332 388
358T312 384Q276 384 248 363T205 304T189 210Q189 160 214 134T290 108ZM148 -35Q134 -53 117 -54T85 -44T68 -15T79 22L456 526Q469 544 486 545T517 535T534 505T523 468L148 -35Z" />
<glyph unicode="&#xf9;" horiz-adv-x="601" d="M189 -11Q137 -11 100 11T47 80T42 201L77 419Q84 461 108 481T173 501Q219 501 239 476T253 404L221 204Q216 165 227 145T270 125Q309 125 335 153T369 231L399 419Q406 461 430 481T495 501Q540 501 560 476T574
404L522 73Q509 -9 426 -9Q384 -9 365 12T353 81L361 135L360 91Q333 39 289 14T189 -11ZM279 572L207 676Q189 702 191 725T209 763T247 782T291 775T326 733L378 618Q388 595 380 577T354 549T316 545T279 572Z" />
<glyph unicode="&#xfa;" horiz-adv-x="601" d="M189 -11Q137 -11 100 11T47 80T42 201L77 419Q84 461 108 481T173 501Q219 501 239 476T253 404L221 204Q216 165 227 145T270 125Q309 125 335 153T369 231L399 419Q406 461 430 481T495 501Q540 501 560 476T574
404L522 73Q509 -9 426 -9Q384 -9 365 12T353 81L361 135L360 91Q333 39 289 14T189 -11ZM411 563Q394 544 375 543T341 551T322 581T332 621L414 751Q429 775 450 781T490 781T522 757T535 721T516 679L411 563Z" />
<glyph unicode="&#xfb;" horiz-adv-x="601" d="M189 -11Q137 -11 100 11T47 80T42 201L77 419Q84 461 108 481T173 501Q219 501 239 476T253 404L221 204Q216 165 227 145T270 125Q309 125 335 153T369 231L399 419Q406 461 430 481T495 501Q540 501 560 476T574
404L522 73Q509 -9 426 -9Q384 -9 365 12T353 81L361 135L360 91Q333 39 289 14T189 -11ZM500 615Q511 592 503 575T478 549T443 544T412 568L354 670L271 565Q256 547 238 544T204 550T184 576T193 615L261 720Q280 751 305 767T361 784Q394 784 417 768T453 722L500
615Z" />
<glyph unicode="&#xfc;" horiz-adv-x="601" d="M189 -11Q137 -11 100 11T47 80T42 201L77 419Q84 461 108 481T173 501Q219 501 239 476T253 404L221 204Q216 165 227 145T270 125Q309 125 335 153T369 231L399 419Q406 461 430 481T495 501Q540 501 560 476T574
404L522 73Q509 -9 426 -9Q384 -9 365 12T353 81L361 135L360 91Q333 39 289 14T189 -11ZM455 577Q422 577 404 593T386 639Q386 682 410 709T479 737Q513 737 530 721T548 676Q548 632 525 605T455 577ZM249 577Q215 577 197 593T179 639Q179 682 203 709T273
737Q307 737 324 721T342 676Q342 632 318 605T249 577Z" />
<glyph unicode="&#xfd;" horiz-adv-x="541" d="M130 -189Q97 -189 79 -175T59 -136T73 -85L168 69L158 -3L50 383Q40 418 47 444T76 486T129 501Q165 501 184 484T213 422L271 170H237L389 439Q408 473 429 487T485 501Q518 501 537 487T558 449T543 397L227 -126Q207
-160 186 -174T130 -189ZM367 563Q350 544 331 543T297 551T278 581T288 621L370 751Q385 775 406 781T446 781T478 757T491 721T472 679L367 563Z" />
<glyph unicode="&#xfe;" horiz-adv-x="620" d="M72 -189Q30 -189 11 -162T-1 -86L112 625Q119 670 145 692T214 714Q256 714 275 687T287 611L249 365L247 415Q275 457 317 480T411 503Q466 503 507 477T570 403T593 289Q593 203 562 135T475 28T344 -11Q291 -11
251 12T194 81L203 80L174 -102Q168 -146 143 -167T72 -189ZM306 120Q340 120 364 140T401 197T414 279Q414 324 394 348T337 372Q303 372 279 352T242 295T228 213Q228 168 249 144T306 120Z" />
<glyph unicode="&#xff;" horiz-adv-x="541" d="M130 -189Q97 -189 79 -175T59 -136T73 -85L168 69L158 -3L50 383Q40 418 47 444T76 486T129 501Q165 501 184 484T213 422L271 170H237L389 439Q408 473 429 487T485 501Q518 501 537 487T558 449T543 397L227 -126Q207
-160 186 -174T130 -189ZM411 577Q378 577 360 593T342 639Q342 682 366 709T435 737Q469 737 486 721T504 676Q504 632 481 605T411 577ZM205 577Q171 577 153 593T135 639Q135 682 159 709T229 737Q263 737 280 721T298 676Q298 632 274 605T205 577Z" />
<glyph unicode="&#x2013;" horiz-adv-x="500" d="M50 218Q20 218 7 230T-6 259Q-6 285 12 302T56 319H456Q487 319 500 307T513 277Q513 251 495 235T451 218H50Z" />
<glyph unicode="&#x2014;" horiz-adv-x="1000" d="M50 218Q20 218 7 230T-6 259Q-6 285 12 302T56 319H956Q987 319 1000 307T1013 277Q1013 251 995 235T951 218H50Z" />
<glyph unicode="&#x2018;" horiz-adv-x="272" d="M175 682Q195 700 214 700T246 690T259 660T240 624Q208 595 195 571T175 516L166 565Q212 565 240 539T268 468Q268 425 242 399T170 372Q124 372 100 401T76 475Q76 515 86 549T118 616T175 682Z" />
<glyph unicode="&#x2019;" horiz-adv-x="272" d="M189 400Q170 381 151 381T119 392T106 422T126 458Q157 487 171 512T190 566L199 517Q153 517 125 543T97 614Q97 658 123 684T195 711Q241 711 265 682T289 607Q289 567 279 533T247 466T189 400Z" />
<glyph unicode="&#x201a;" horiz-adv-x="272" d="M107 -123Q87 -142 68 -142T36 -131T23 -101T43 -65Q74 -36 88 -11T107 43L116 -6Q70 -6 42 20T14 92Q14 135 40 161T112 188Q159 188 182 159T206 85Q206 44 196 10T164 -57T107 -123Z" />
<glyph unicode="&#x201c;" horiz-adv-x="502" d="M175 682Q195 700 214 700T246 690T259 660T240 624Q208 595 195 571T175 516L166 565Q212 565 240 539T268 468Q268 425 242 399T170 372Q124 372 100 401T76 475Q76 515 86 549T118 616T175 682ZM405 682Q425
700 444 700T476 690T489 660T470 624Q438 595 425 571T405 516L396 565Q442 565 470 539T498 468Q498 425 472 399T400 372Q354 372 330 401T306 475Q306 515 316 549T348 616T405 682Z" />
<glyph unicode="&#x201d;" horiz-adv-x="502" d="M189 400Q170 381 151 381T119 392T106 422T126 458Q157 487 171 512T190 566L199 517Q153 517 125 543T97 614Q97 658 123 684T195 711Q241 711 265 682T289 607Q289 567 279 533T247 466T189 400ZM419 400Q400
381 381 381T349 392T336 422T356 458Q387 487 401 512T420 566L429 517Q383 517 355 543T327 614Q327 658 353 684T425 711Q471 711 495 682T519 607Q519 567 509 533T477 466T419 400Z" />
<glyph unicode="&#x201e;" horiz-adv-x="502" d="M107 -123Q87 -142 68 -142T36 -131T23 -101T43 -65Q74 -36 88 -11T107 43L116 -6Q70 -6 42 20T14 92Q14 135 40 161T112 188Q159 188 182 159T206 85Q206 44 196 10T164 -57T107 -123ZM337 -123Q317 -142 298
-142T266 -131T253 -101T273 -65Q304 -36 318 -11T337 43L346 -6Q300 -6 272 20T244 92Q244 135 270 161T342 188Q389 188 412 159T436 85Q436 44 426 10T394 -57T337 -123Z" />
<glyph unicode="&#x2022;" horiz-adv-x="524" d="M265 88Q216 88 175 111T109 175T84 265Q84 311 107 351T172 417T265 443Q313 443 354 420T421 357T446 265Q446 216 422 176T356 112T265 88Z" />
<glyph unicode="&#x2039;" horiz-adv-x="320" d="M200 82Q167 67 140 78T99 120L60 207Q47 236 50 265T76 323L170 437Q187 458 211 462T259 456Q285 442 288 415T264 347L203 260L231 167Q239 137 232 115T200 82Z" />
<glyph unicode="&#x203a;" horiz-adv-x="320" d="M67 79Q42 92 38 119T62 187L123 275L95 368Q87 397 94 419T125 452Q159 467 186 456T227 414L266 328Q279 299 276 270T250 211L156 97Q139 76 115 72T67 79Z" />
</font>
</defs>
</svg>
